Ивановский Торрент трекер
Яндекс.Погода
 

[Quote]
HUNTER

Лига справедливости / Justice League
Год выпуска: 2017
Страна: США, Великобритания, Канада (Warner Bros. Pictures, Access Entertainment, DC Comics, Dune Entertainment, Atlas Entertainment, Cruel & Unusual Films)
Жанр: фантастика, фэнтези, боевик, приключения
Продолжительность: 02:00:03
Перевод: Профессиональный дублированный(лицензия)
Русские субтитры: нет
Режиссер на русском: Зак Снайдер / Zack Snyder
В ролях: Галь Гадот, Робин Райт, Джейсон Момоа, Конни Нильсен, Эми Адамс, Бен Аффлек, Эзра Миллер, Эмбер Хёрд, Генри Кавилл, Дайан Лэйн
Описание: Брюс Уэйн, вдохновленный самопожертвованием Супермена, вновь обретает веру в человечество. Он заручается поддержкой новой союзницы, Дианы Принс, чтобы сразиться с еще более могущественным противником. Бэтмен и Чудо-Женщина быстро набирают команду сверхлюдей для борьбы с пробудившейся угрозой. Но несмотря на уникальный состав отряда супергероев — Бэтмен, Чудо-Женщина, Аквамэн, Киборг и Флэш, — быть может, спасать планету от вторжения катастрофических масштабов уже слишком поздно.
Сэмпл: http://sendfile.su/1404446
Качество: BDrip
Контейнер: MKV
Формат 3D: OverUnder / Вертикальная стереопара
Порядок ракурсов: левый ракурс первый
Видео кодек: x264
Аудио кодек: AC3
Видео: AVC / [email protected] / 23,976 fps / 1920х2160 / 28,9 Мбит/сек
Аудио: Русский / AC3 / 48 KHz / 5.1 ch / 448 Кбит/сек Кбит/сек(лицензия)
Аудио 2: Английский / AC3 / 48 KHz / 5.1 ch / 640 Кбит/сек
ВНИМАНИЕ ! На встроенных ТВ-плеерах работать не будет!!!
ТВ Samsung в названии которого есть надпись Ultra HD , и LG Ultra HD 800 серии, LG C6P, Xiaomi Mi TV 2 воспроизводят полные стереопары встроенными плеерами
Железные плееры на которых воспроизводятся полные стереопары:Popcorn C-200 , Dune HD Smart D1 , Dune HD DUO , Dune HD Smart H1 , Dune HD Smart B1 , Dune HD Max , Dune HD TV-303D, Dune HD TV-102, Dune HD Base 3D, Philips HMP7001, Aura HD, MECOOL BB2
Чтобы изображение было на весь экран в плеере выставляем, если рип 1920х1600 - то выставляем 2.35:1 , если 1920х2160 - то выставляем 16:9

MediaInfo

Общее
Уникальный идентификатор : 209486097345138765768810198767619946183 (0x9D998E06205F119E98A3EBB8AF9236C7)
Полное имя : F:\закачки\Justice League.Rip by SeRoGa00.mkv
Формат : Matroska
Версия формата : Version 2
Размер файла : 25,7 Гбайт
Продолжительность : 2 ч. 0 м.
Общий поток : 30,6 Мбит/сек
Дата кодирования : UTC 2018-03-08 14:34:54
Программа кодирования : mkvmerge v3.4.0 ('Rapunzel') сборка от May 15 2010 09:38:20
Библиотека кодирования : libebml v0.8.0 + libmatroska v0.9.0
Видео
Идентификатор : 1
Формат : AVC
Формат/Информация : Advanced Video Codec
Профиль формата : [email protected]
Параметр CABAC формата : Да
Параметр ReFrames формата : 4 кадра
Идентификатор кодека : V_MPEG4/ISO/AVC
Продолжительность : 2 ч. 0 м.
Битрейт : 28,9 Мбит/сек
Ширина : 1920 пикселей
Высота : 2160 пикселей
Соотношение сторон : 0,889
Частота кадров : 23,976 кадра/сек
Цветовое пространство : YUV
Субдискретизация насыщенности : 4:2:0
Битовая глубина : 8 бит
Тип развёртки : Прогрессивная
Бит/(Пиксели*Кадры) : 0.291
Размер потока : 24,3 Гбайт (94%)
Заголовок : Rip by SeRoGa00
Библиотека кодирования : x264 core 155 r2901 7d0ff22
Настройки программы : cabac=1 / ref=4 / deblock=1:-3:-3 / analyse=0x3:0x113 / me=umh / subme=10 / psy=1 / psy_rd=1.00:0.15 / mixed_ref=1 / me_range=24 / chroma_me=1 / trellis=2 / 8x8dct=1 / cqm=0 / deadzone=21,11 / fast_pskip=1 / chroma_qp_offset=-3 / threads=12 / lookahead_threads=6 / sliced_threads=0 / nr=0 / decimate=0 / interlaced=0 / bluray_compat=0 / constrained_intra=0 / bframes=10 / b_pyramid=2 / b_adapt=2 / b_bias=0 / direct=3 / weightb=1 / open_gop=0 / weightp=2 / keyint=250 / keyint_min=23 / scenecut=40 / intra_refresh=0 / rc_lookahead=60 / rc=crf / mbtree=1 / crf=18.0 / qcomp=0.60 / qpmin=10 / qpmax=69 / qpstep=4 / vbv_maxrate=40000 / vbv_bufsize=40000 / crf_max=0.0 / nal_hrd=none / filler=0 / ip_ratio=1.40 / aq=1:1.00
Язык : English
Default : Нет
Forced : Нет
Аудио #1
Идентификатор : 2
Формат : AC-3
Формат/Информация : Audio Coding 3
Расширение режима : CM (complete main)
Параметр Endianness формата : Big
Идентификатор кодека : A_AC3
Продолжительность : 2 ч. 0 м.
Вид битрейта : Постоянный
Битрейт : 448 Кбит/сек
Каналы : 6 каналов
Расположение каналов : Front: L C R, Side: L R, LFE
Частота : 48,0 КГц
Битовая глубина : 16 бит
Метод сжатия : С потерями
Размер потока : 385 Мбайт (1%)
Язык : Russian
Default : Да
Forced : Да
Аудио #2
Идентификатор : 3
Формат : AC-3
Формат/Информация : Audio Coding 3
Расширение режима : CM (complete main)
Параметр Endianness формата : Big
Идентификатор кодека : A_AC3
Продолжительность : 2 ч. 0 м.
Вид битрейта : Постоянный
Битрейт : 640 Кбит/сек
Каналы : 6 каналов
Расположение каналов : Front: L C R, Side: L R, LFE
Частота : 48,0 КГц
Битовая глубина : 16 бит
Метод сжатия : С потерями
Размер потока : 550 Мбайт (2%)
Язык : English
Default : Нет
Forced : Нет
Меню
00:00:00.000 : en:00:00:00.000
00:10:56.155 : en:00:10:56.155
00:19:16.489 : en:00:19:16.489
00:30:41.673 : en:00:30:41.673
00:40:19.667 : en:00:40:19.667
00:49:56.535 : en:00:49:56.535
01:01:26.892 : en:01:01:26.892
01:09:41.552 : en:01:09:41.552
01:19:18.587 : en:01:19:18.587
01:30:34.512 : en:01:30:34.512
01:40:33.569 : en:01:40:33.569
01:48:43.058 : en:01:48:43.058

Скриншоты




Display posts:    

Current time is: 16-Oct 11:11

All times are UTC ± 0


You cannot post new topics in this forum
You cannot reply to topics in this forum
You cannot edit your posts in this forum
You cannot delete your posts in this forum
You cannot vote in polls in this forum
You cannot attach files in this forum
You cannot download files in this forum

!ATTENTION!
The site does not give electronic versions of products, and is engaged only in a collecting and cataloguing of the references sent and published at a forum by our readers. If you are the legal owner of any submitted material and do not wish that the reference to it was in our catalogue, contact us and we shall immediately remove her. Files for an exchange on tracker are given by users of a site, and the administration does not bear the responsibility for their maintenance. The request to not fill in the files protected by copyrights, and also files of the illegal maintenance!