Ивановский Торрент трекер
Яндекс.Погода
 

[Quote]
HUNTER

Легенда о Коловрате
Страна: Россия
Студия: Astra Media
Жанр: исторический, военный, биографический
Год выпуска: 2017
Продолжительность: 01:52:49
Перевод: Не требуется
Субтитры: нет
Оригинальная аудиодорожка: русский
Режиссер: Джаник Файзиев / Иван Шурховецкий
В ролях: Илья Малаков — десятник Евпатий Коловрат
Давид Мелконян — Евпатий Коловрат в 13 лет
Александр Цой — хан Батый
Александр Ильин мл. — дружинник Каркун
Юлия Хлынина — Лада
Тимофей Трибунцев — знахарь Захар[5]
Алексей Серебряков — князь Юрий Рязанский
Игорь Савочкин — Ратмир, отец Насти
Полина Чернышова — Настя
Диана Пентович — Настя в детстве
Илья Антоненко — княжич Фёдор Юрьевич
Георгий Пицхелаури — Хостоврул
Даулет Абдыгапаров — Субэдэй
Ольга Дроздова — княгиня Аграфена, супруга князя Юрия
Мария Фомина — княжна Евпраксия, жена Фёдора
Дарья Ярцева — княжна Дарья
Сергей Колтаков — Добромир
Андрей Бурковский — брянский воевода Ростислав
Виктор Проскурин — священник
Семён Морозов — слуга Фёдора
Алексей Вертков — Нестор
Николай Джеваков — Цогт
Евгений Сангаджиев — Толмач
Сергей Шайдаков — Путята
Геннадий Соловьев — Никифор
Антон Шпиньков — Данила
Сергей Ююкин — Фрол, гонец
Артем Бордовский — Никита
Артёмий Падалка — Иван, сын Евпатия Коловрата
Марта Тимофеева — Ждана, дочь Евпатия Коловрата
Андрей Свиридов — привратник
Фёдор Лавров — князь владимирский «Игорь» (Юрий Всеволодович)
Тимур Определённов — близнец 1
Егор Определённов — близнец 2
Александр Ильин — князь муромский «Святослав» (Ярослав Юрьевич)
Артур Еникеев — Тихоня
Александр Марушев — Хохотун
Борис Зверев — Емеля
Александр Кононец — Рябой
Арсений Робак — Пётр Рыбак
Владимир Любимцев — Гурьян Куря
Кирилл Снегирёв — Снегирь
Николай Шрайбер — Вася Пляс
Михаил Павлик — купец Василий
Артём Гайдуков — Пересвет
Амаду Мамадаков — Астай
Ольга Василенко — жена Захара
Максим Пинскер — советник
Нет в титрах:
Евгений Кононов — юродивый
Михаил Соломатин — ополченец
Юлия Писаренко — боярыня
Александр Цёма — воин
Джан Бадмаев — Зурган
Максим Сапожников — ополченец
Денис Сладков — боярин
Марина Коломина — боярыня
Описание: XIII век. Уже почти сто лет, как Русь распалась на отдельные княжества, непрерывно враждующие между собой.
«Коловрат» «родился» (т.е. получил своё прозвище) в 1223 году, когда произошла битва на Калке и монголы с юга впервые заходили на земли русских княжеств. Тогда, при нападении монгольской засады юный Евпатий был тяжело ранен и стал страдать потерей памяти.
В 1237 году монгольское войско во главе с внуком Чингисхана Батыем (названным в фильме «ханом») снова подошло к русским княжествам, теперь уже с востока. Когда о его приближении узнали в Рязани, княжеский десятник Евпатий Коловрат был послан в орду вместе с княжичем Фёдором на переговоры. Договориться не получилось. Фёдор был убит монголами, но Евпатию Коловрату и ещё нескольким воинам удалось спастись, убив несколько десятков монголов. Когда они смогли вернуться в Рязань, город уже был сожжён Батыем. Евпатий Коловрат собрал отряд мстителей и поставил задачу задержать монгольское войско, надеясь, что соседние русские князья смогут собрать силы для совместного сопротивления. Но помощь от соседей так и не пришла, хотя Евпатию Коловрату и его бойцам удалось несколькими дерзкими рейдами стянуть на себя силы всего монгольского войска и уничтожить множество монгольских воинов.
В итоге Евпатий Коловрат с товарищами держат оборону на укреплённом холме, он даже убивает монгольского военачальника Хостоврула. Большая часть рязанцев гибнет в ближнем бою, а оставшаяся — под обстрелом из пороков (камнемётных машин). Удаётся спастись только дружиннику Каркуну, которому Евпатием перед сражением было поручено вывезти детей погибших рязанцев по реке в безопасное место.
1242 год. В финале фильма, спустя пять лет после подвига дружины Евпатия Коловрата, Каркун в составе объединённого новгородско-владимирского войска выходит на Чудское озеро на бой против немецких рыцарей. Перед боем воины вдохновляют себя воспоминаниями о подвиге Евпатия Коловрата и его товарищей.
Доп. информация: «Легенда о Коловрате» — российский исторический кинофильм с элементами фэнтези режиссёра Джаника Файзиева и Ивана Шурховецкого о взятии Рязани монголо-татарами в XIII веке и о рязанском воине Евпатии Коловрате, снятый по мотивам сюжета «Повести о разорении Рязани Батыем».
Меню: Анимированное
Сэмпл: http://sendfile.su/1400417
Тип релиза: DVD5
Контейнер: DVD-Video
Видео: 4846 кбит/сек 720^480 (16:9) 29,970 кадр/сек
Аудио: 384 кбит/сек 48,0 КГЦ 16 бит 6 каналов АС-3

MediaInfo

Общее
Полное имя : E:\ФИЛЬМЫ ТОРРЕНТ\Легенда о Коловрате (2017 DVD5)\VIDEO_TS\VTS_01_2.VOB
Формат : MPEG-PS
Размер файла : 1024 Мбайт
Продолжительность : 26 м. 50 с.
Режим общего битрейта : Переменный
Общий поток : 5332 Кбит/сек
Видео
Идентификатор : 224 (0xE0)
Формат : MPEG Video
Версия формата : Version 2
Профиль формата : [email protected]
Настройки формата : CustomMatrix / BVOP
Параметр BVOP формата : Да
Параметр матрицы формата : Выборочная
Параметр GOP формата : Variable
Продолжительность : 26 м. 50 с.
Вид битрейта : Переменный
Битрейт : 4846 Кбит/сек
Ширина : 720 пикселей
Высота : 480 пикселей
Соотношение сторон : 16:9
Частота кадров : 29,970 (30000/1001) кадров/сек
Стандарт вещания : NTSC
Цветовое пространство : YUV
Субдискретизация насыщенности : 4:2:0
Битовая глубина : 8 бит
Тип развёртки : Прогрессивная
Метод сжатия : С потерями
Бит/(Пиксели*Кадры) : 0.468
Временной код первого кадра : 00:26:51:20
Оригинал временного кода : Group of pictures header
Размер потока : 930 Мбайт (91%)
Основные цвета : BT.601 NTSC
Характеристики трансфера : BT.601
Коэффициенты матрицы : BT.601
Аудио
Идентификатор : 189 (0xBD)-128 (0x80)
Формат : AC-3
Формат/Информация : Audio Coding 3
Режим смешивания : DVD-Video
Продолжительность : 26 м. 50 с.
Вид битрейта : Постоянный
Битрейт : 384 Кбит/сек
Каналы : 6 каналов
Расположение каналов : Front: L C R, Side: L R, LFE
Частота : 48,0 КГц
Частота кадров : 31,250 кадров/сек (1536 SPF)
Битовая глубина : 16 бит
Метод сжатия : С потерями
Задержка видео : -321 мс.
Размер потока : 73,7 Мбайт (7%)
ServiceKind/String : Complete Main

DVDInfo

Title: partition1
Size: 4.23 Gb ( 4 432 176 KBytes ) - DVD-5
Enabled regions: 1, 2, 3, 4, 5, 6, 7, 8
VTS_01 :
Play Length: 01:52:49
Video: NTSC 16:9 (720x480) VBR, Auto Pan&Scan
Audio:
Not specified (Dolby AC3, 6 ch)
Menu Video:
NTSC 4:3 (720x480) VBR
Auto Pan&Scan, Auto Letterboxed
Menu Language Unit :
Root Menu

Скрины

Скриншоты меню

Скриншоты



Display posts:    

Current time is: 23-Oct 00:44

All times are UTC ± 0


You cannot post new topics in this forum
You cannot reply to topics in this forum
You cannot edit your posts in this forum
You cannot delete your posts in this forum
You cannot vote in polls in this forum
You cannot attach files in this forum
You cannot download files in this forum

!ATTENTION!
The site does not give electronic versions of products, and is engaged only in a collecting and cataloguing of the references sent and published at a forum by our readers. If you are the legal owner of any submitted material and do not wish that the reference to it was in our catalogue, contact us and we shall immediately remove her. Files for an exchange on tracker are given by users of a site, and the administration does not bear the responsibility for their maintenance. The request to not fill in the files protected by copyrights, and also files of the illegal maintenance!