Ивановский Торрент трекер
Яндекс.Погода
 

[Quote]
HUNTER

Леди БёрдLady Bird- Год выпуска: 2017
Страна: США
Студия: A24
Жанр: драма, комедия-Продолжительность: 01:34:05
Перевод: Любительский (многоголосый закадровый) HDrezka
Субтитры: русские (PhysKids), английские (SDH)
Оригинальная аудиодорожка: английский-Режиссёр: Грета Гервиг / Greta Gerwig
В ролях: Сирша Ронан, Лори Меткаф, Трейси Леттс, Лукас Хеджес, Тимоти Шаламе, Бини Фельдстин, Стивен МакКинли Хендерсон, Лоис Смит, Джордан Родригес, Мэриел Скотт, Одейя Раш, Джейк МакДорман, Лора Марано, Кэтрин Ньютон, Джон Карна и др.-Описание: Кристина МакФирсон учится в консервативной католической школе в Сакраменто. Она ищет себя, своё место в мире и пытается быть не похожей на других. Её волосы выкрашены в странный красно-розовый цвет, а имя «Леди Бёрд» она дала себе сама и именно так просит её называть. У девушки сложный и сильный характер, она протестует против строгих правил общества. Однажды Кристина пытается бежать из своего провинциального городка в Нью-Йорк.-КиноПоиск | IMDb | Sample-Тип релиза: BDRip 720p (Источник: Lady.Bird.2017.1080p.BluRay.REMUX.AVC.DTS-HD.MA.5.1-FGT)
Контейнер: MKV
Видео: x264, 1280x690 (1.85:1), 23.976 fps, ~6167 kbps avg, 0.291 bit/pixel
Аудио #1: Russian 48.0 KHz, АC3, 2/0 (Front: L R) ch, ~192.00 kbps avg |HDrezka|
Аудио #2: English 48.0 KHz, АC3, 3/2 (L,C,R,l,r) + LFE ch, ~640.00 kbps avg |Original|
Аудио #3: English 48.0 KHz, АC3, 2/0 (Front: L R) ch, ~192.00 kbps avg |Commentary|
Формат субтитров: softsub (SRT)-

Релиз


Рип и синхронизация субтитров - whip93.

Сравнения скриншотов

Source vs. Encode

MediaInfo | x264 log

x264 log

---[Information] [02.03.2018 14:20:26] raw [info]: 1280x690p 1:1 @ 24000/1001 fps (cfr)
---[Information] [02.03.2018 14:20:26] x264 [info]: using SAR=1/1
---[Information] [02.03.2018 14:20:26] x264 [info]: using cpu capabilities: MMX2 SSE2Fast SSSE3 SSE4.2 AVX
---[Information] [02.03.2018 14:20:26] x264 [info]: profile High, level 4.1
---[Information] [02.03.2018 21:42:11] x264 [info]: frame I:1059 Avg QP:14.07 size:118721
---[Information] [02.03.2018 21:42:11] x264 [info]: frame P:25970 Avg QP:15.57 size: 53749
---[Information] [02.03.2018 21:42:11] x264 [info]: frame B:108308 Avg QP:17.17 size: 27085
---[Information] [02.03.2018 21:42:11] x264 [info]: consecutive B-frames: 1.2% 1.1% 3.7% 16.4% 16.6% 46.3% 7.5% 2.7% 1.7% 1.2% 0.6% 0.2% 0.9%
---[Information] [02.03.2018 21:42:11] x264 [info]: mb I I16..4: 7.3% 73.9% 18.8%
---[Information] [02.03.2018 21:42:11] x264 [info]: mb P I16..4: 0.9% 23.1% 2.2% P16..4: 35.1% 21.6% 5.8% 1.8% 0.1% skip: 9.3%
---[Information] [02.03.2018 21:42:11] x264 [info]: mb B I16..4: 0.2% 5.8% 0.3% B16..8: 31.1% 18.3% 3.7% direct:11.5% skip:29.1% L0:43.7% L1:40.9% BI:15.4%
---[Information] [02.03.2018 21:42:11] x264 [info]: 8x8 transform intra:89.2% inter:53.2%
---[Information] [02.03.2018 21:42:11] x264 [info]: coded y,uvDC,uvAC intra: 90.3% 65.7% 44.5% inter: 39.2% 19.8% 3.2%
---[Information] [02.03.2018 21:42:11] x264 [info]: i16 v,h,dc,p: 53% 11% 12% 24%
---[Information] [02.03.2018 21:42:11] x264 [info]: i8 v,h,dc,ddl,ddr,vr,hd,vl,hu: 11% 10% 17% 9% 11% 10% 10% 10% 13%
---[Information] [02.03.2018 21:42:11] x264 [info]: i4 v,h,dc,ddl,ddr,vr,hd,vl,hu: 28% 8% 18% 6% 9% 8% 7% 7% 8%
---[Information] [02.03.2018 21:42:11] x264 [info]: i8c dc,h,v,p: 31% 39% 20% 11%
---[Information] [02.03.2018 21:42:11] x264 [info]: Weighted P-Frames: Y:1.4% UV:0.8%
---[Information] [02.03.2018 21:42:11] x264 [info]: ref P L0: 37.4% 3.4% 21.1% 8.1% 9.1% 5.5% 6.7% 3.7% 4.8% 0.1% 0.0%
---[Information] [02.03.2018 21:42:11] x264 [info]: ref B L0: 62.2% 15.2% 8.0% 5.0% 3.7% 3.3% 1.9% 0.7%
---[Information] [02.03.2018 21:42:11] x264 [info]: ref B L1: 92.2% 7.8%
---[Information] [02.03.2018 21:42:11] x264 [info]: kb/s:6314.11
---[Information] [02.03.2018 21:42:11] encoded 135337 frames, 5.11 fps, 6314.11 kb/s
General
Unique ID : 104726914205526683026760881308335633031 (0x4EC9AB857573EFF369DE5AE7CE9C7287)
Complete name : F:\Lady.Bird.2017.720p.BluRay.DD2.0.x264.-whip93.mkv
Format : Matroska
Format version : Version 4 / Version 2
File size : 4.82 GiB
Duration : 1h 34mn
Overall bit rate : 7 337 Kbps
Movie name : Леди Бёрд | Lady Bird (2017) - Release by whip93
Encoded date : UTC 2018-03-02 19:46:59
Writing application : mkvmerge v20.0.0 ('I Am The Sun') 64-bit
Writing library : libebml v1.3.5 + libmatroska v1.4.8
DURATION : 01:28:07.360000000
NUMBER_OF_FRAMES : 1319
NUMBER_OF_BYTES : 80107
_STATISTICS_WRITING_APP : mkvmerge v20.0.0 ('I Am The Sun') 64-bit
_STATISTICS_WRITING_DATE_UT : 2018-03-02 19:46:59
_STATISTICS_TAGS : BPS DURATION NUMBER_OF_FRAMES NUMBER_OF_BYTES
Video
ID : 1
Format : AVC
Format/Info : Advanced Video Codec
Format profile : [email protected]
Format settings, CABAC : Yes
Format settings, ReFrames : 9 frames
Codec ID : V_MPEG4/ISO/AVC
Duration : 1h 34mn
Bit rate : 6 167 Kbps
Width : 1 280 pixels
Height : 690 pixels
Display aspect ratio : 1.85:1
Frame rate mode : Constant
Frame rate : 23.976 fps
Color space : YUV
Chroma subsampling : 4:2:0
Bit depth : 8 bits
Scan type : Progressive
Bits/(Pixel*Frame) : 0.291
Stream size : 4.05 GiB (84%)
Title : Encoded by whip93
Writing library : x264 core 155 r2901 7d0ff22
Encoding settings : cabac=1 / ref=9 / deblock=1:-3:-3 / analyse=0x3:0x133 / me=umh / subme=11 / psy=1 / psy_rd=1.00:0.08 / mixed_ref=0 / me_range=64 / chroma_me=1 / trellis=2 / 8x8dct=1 / cqm=0 / deadzone=21,11 / fast_pskip=0 / chroma_qp_offset=-2 / threads=12 / lookahead_threads=3 / sliced_threads=0 / nr=0 / decimate=1 / interlaced=0 / bluray_compat=0 / constrained_intra=0 / bframes=12 / b_pyramid=2 / b_adapt=2 / b_bias=0 / direct=1 / weightb=1 / open_gop=0 / weightp=2 / keyint=240 / keyint_min=23 / scenecut=40 / intra_refresh=0 / rc_lookahead=90 / rc=crf / mbtree=0 / crf=17.0 / qcomp=0.72 / qpmin=0 / qpmax=69 / qpstep=4 / vbv_maxrate=50000 / vbv_bufsize=62500 / crf_max=0.0 / nal_hrd=none / filler=0 / ip_ratio=1.40 / pb_ratio=1.30 / aq=3:0.80 / zones=190,594,q=26/127369,134538,q=26/134685,135336,q=26
Language : English
Default : Yes
Forced : No
Color range : Limited
Color primaries : BT.709
Transfer characteristics : BT.709
Matrix coefficients : BT.709
Audio #1
ID : 2
Format : AC-3
Format/Info : Audio Coding 3
Mode extension : CM (complete main)
Format settings, Endianness : Big
Codec ID : A_AC3
Duration : 1h 34mn
Bit rate mode : Constant
Bit rate : 192 Kbps
Channel(s) : 2 channels
Channel positions : Front: L R
Sampling rate : 48.0 KHz
Compression mode : Lossy
Stream size : 129 MiB (3%)
Title : MVO (HDrezka)
Language : Russian
Default : Yes
Forced : No
Audio #2
ID : 3
Format : AC-3
Format/Info : Audio Coding 3
Mode extension : CM (complete main)
Format settings, Endianness : Big
Codec ID : A_AC3
Duration : 1h 34mn
Bit rate mode : Constant
Bit rate : 640 Kbps
Channel(s) : 6 channels
Channel positions : Front: L C R, Side: L R, LFE
Sampling rate : 48.0 KHz
Compression mode : Lossy
Stream size : 431 MiB (9%)
Title : Original
Language : English
Default : No
Forced : No
Audio #3
ID : 4
Format : AC-3
Format/Info : Audio Coding 3
Mode extension : CM (complete main)
Format settings, Endianness : Big
Codec ID : A_AC3
Duration : 1h 34mn
Bit rate mode : Constant
Bit rate : 192 Kbps
Channel(s) : 2 channels
Channel positions : Front: L R
Sampling rate : 48.0 KHz
Compression mode : Lossy
Stream size : 129 MiB (3%)
Title : Commentary by writer/director Greta Gerwig and director of photography Sam Levy
Language : English
Default : No
Forced : No
Text #1
ID : 5
Format : UTF-8
Codec ID : S_TEXT/UTF8
Codec ID/Info : UTF-8 Plain Text
Title : PhysKids
Language : Russian
Default : No
Forced : No
Text #2
ID : 6
Format : UTF-8
Codec ID : S_TEXT/UTF8
Codec ID/Info : UTF-8 Plain Text
Title : Original (SDH)
Language : English
Default : No
Forced : No
Menu
00:00:00.000 : en:Chapter 1
00:05:59.650 : en:Chapter 2
00:11:17.426 : en:Chapter 3
00:18:20.390 : en:Chapter 4
00:22:15.959 : en:Chapter 5
00:27:46.289 : en:Chapter 6
00:33:56.284 : en:Chapter 7
00:40:33.639 : en:Chapter 8
00:45:51.039 : en:Chapter 9
00:51:02.017 : en:Chapter 10
00:57:29.070 : en:Chapter 11
01:03:11.370 : en:Chapter 12
01:08:32.358 : en:Chapter 13
01:14:06.066 : en:Chapter 14
01:21:17.038 : en:Chapter 15
01:25:26.454 : en:Chapter 16

Скриншоты

-


Display posts:    

Current time is: 17-Oct 04:16

All times are UTC ± 0


You cannot post new topics in this forum
You cannot reply to topics in this forum
You cannot edit your posts in this forum
You cannot delete your posts in this forum
You cannot vote in polls in this forum
You cannot attach files in this forum
You cannot download files in this forum

!ATTENTION!
The site does not give electronic versions of products, and is engaged only in a collecting and cataloguing of the references sent and published at a forum by our readers. If you are the legal owner of any submitted material and do not wish that the reference to it was in our catalogue, contact us and we shall immediately remove her. Files for an exchange on tracker are given by users of a site, and the administration does not bear the responsibility for their maintenance. The request to not fill in the files protected by copyrights, and also files of the illegal maintenance!