Кунг-фу панда: Лапки судьбы / Kung Fu Panda: The Paws of Destiny / Сезон: 1-2 / Серии: 1-26 из 26 (Лэйн Луэрас / Lane Lueras, Джеймс Вуттон / James Wootton) [2018-2019, США, мультфильм, фэнтези, комедия, приключения, WEB-DL 1080p] Dub + Original + Su :: Российский Торрент трекер
Российский Торрент трекер
Яндекс.Погода
 

[Quote]
HUNTER

Кунг-фу панда: Лапки судьбы / Kung Fu Panda: The Paws of Destiny
Первый и второй сезон
- Страна: США
Жанр: мультфильм, фэнтези, комедия, приключения
Продолжительность серии: ~00:23:00
Год выпуска: 2018-2019
Перевод: Профессиональный (дублированный) | Пифагор
Русские субтитры: да-Режиссёр: Лэйн Луэрас / Lane Lueras, Джеймс Вуттон / James Wootton
Роли озвучивали: Мик Вингерт, Лайя ДеЛеон Хэйес, Макана Сай, Гуннар Сайзмор, Хейли Тджу, Стивен Блум, Чериз Буф, Эми Хилл, Кристофер Свиндл, Петр Вальчук, Джеймс Хонг, Грэй ДеЛисл-Описание: Четыре юные панды из Затерянной деревни случайно приобретают в магической пещере древнюю и могущественную силу мастеров энергии ци. И теперь им надо научиться ее контролировать. Ну а в этом им поможет никто иной, как Воин Дракона.-
[box=#d2d2d2,#000000]Предыдущие и альтернативные раздачи[/box]-Качество: WEB-DL 1080p | AMAZON
Формат: MKV
Видео: AVC, 1920х1080, 23.976 fps, ~6400 kbps avg, 0.126 bit/pixel
Аудио 1: Dolby Plus E-AC3, 48 kHz, 6 ch, 640 Kbps | Пифагор
Аудио 2: Dolby Plus E-AC3, 48 kHz, 6 ch, 640 Kbps
Субтитры: Русские (Full), английские (SDH)
Реклама: Отсутствует

Релиз

Релиз: WORTEXSON
Исходный рип: RCVR
Дубляж предоставил: ~NoobSaibot~
Субтитры к 1 сезону от TeamHD

Список серий

Season 101 2018
1. Enter the Dragon Master
2. Blue Dragon Plays with Fire
3. Blade of the Red Phoenix
4. The Intruder Flies a Crooked Path
5. A Fistful of Herbs
6. Poison in the Pit of the Plum
7. Big Trouble in Panda Village
8. Secrets Lost to Shadow
9. Out of the Cave and Onto Thin Ice
10. Return of the Four Constellations
11. Unholy Dragon Returns to the Mountains
12. Sacrifice at the Edge of Time
13. End of the Dragon Master
Season 102 2019
1. Journey to the East
2. Curse of the Monkey King
3. A Game of Fists
4. The Beast of the Wasteland
5. Danger in the Forbidden City
6. The Battle(s) of Gongmen Bay
7. Gongmen City Hustle
8. Night of the White Bone Demon
9. Rise of the Empress
10. Bridge Over Troubled Lava
11. House of Flying Pandas
12. Coronation of the Iron Goddess
13. The Invincible Armour

Подробные технические данные

General
Unique ID : 37368809072946750287278984947561116591 (0x1C1CF888D6493B2C03E120A23CEBB3AF)
Complete name : E:\AMAZON Series\Kung.Fu.Panda.The.Paws.of.Destiny.S01.1080p.AMZN.WEB-DL.Rus.Eng.DDP5.1-WORTEXSON\Kung.Fu.Panda.The.Paws.of.Destiny.S01E01.Enter.the.Dragon.Master.1080p.AMZN.WEB-DL.Rus.Eng.DDP5.1-WORTEXSON.mkv
Format : Matroska
Format version : Version 4
File size : 1.19 GiB
Duration : 22 min 40 s
Overall bit rate : 7 542 kb/s
Encoded date : UTC 2022-05-12 19:58:43
Writing application : mkvmerge v65.0.0 ('Too Much') 64-bit
Writing library : libebml v1.4.2 + libmatroska v1.6.4
Video
ID : 1
Format : AVC
Format/Info : Advanced Video Codec
Format profile : [email protected]
Format settings : CABAC / 4 Ref Frames
Format settings, CABAC : Yes
Format settings, ReFrames : 4 frames
Codec ID : V_MPEG4/ISO/AVC
Duration : 22 min 40 s
Bit rate mode : Constant
Bit rate : 6 260 kb/s
Nominal bit rate : 10 000 kb/s
Width : 1 920 pixels
Height : 1 080 pixels
Display aspect ratio : 16:9
Frame rate mode : Constant
Frame rate : 23.976 (24000/1001) FPS
Color space : YUV
Chroma subsampling : 4:2:0
Bit depth : 8 bits
Scan type : Progressive
Bits/(Pixel*Frame) : 0.126
Stream size : 1 015 MiB (83%)
Language : English
Default : Yes
Forced : No
Color range : Limited
Color primaries : BT.709
Transfer characteristics : BT.709
Matrix coefficients : BT.709
Audio #1
ID : 2
Format : E-AC-3
Format/Info : Enhanced AC-3
Commercial name : Dolby Digital Plus
Codec ID : A_EAC3
Duration : 22 min 40 s
Bit rate mode : Constant
Bit rate : 640 kb/s
Channel(s) : 6 channels
Channel layout : L R C LFE Ls Rs
Sampling rate : 48.0 kHz
Frame rate : 31.250 FPS (1536 SPF)
Compression mode : Lossy
Stream size : 104 MiB (8%)
Title : Russian
Language : Russian
Service kind : Complete Main
Default : Yes
Forced : No
Audio #2
ID : 3
Format : E-AC-3
Format/Info : Enhanced AC-3
Commercial name : Dolby Digital Plus
Codec ID : A_EAC3
Duration : 22 min 40 s
Bit rate mode : Constant
Bit rate : 640 kb/s
Channel(s) : 6 channels
Channel layout : L R C LFE Ls Rs
Sampling rate : 48.0 kHz
Frame rate : 31.250 FPS (1536 SPF)
Compression mode : Lossy
Stream size : 104 MiB (8%)
Title : English
Language : English
Service kind : Complete Main
Default : No
Forced : No
Text #1
ID : 4
Format : UTF-8
Codec ID : S_TEXT/UTF8
Codec ID/Info : UTF-8 Plain Text
Duration : 20 min 57 s
Bit rate : 89 b/s
Count of elements : 251
Stream size : 13.7 KiB (0%)
Title : Russian
Language : Russian
Default : No
Forced : No
Text #2
ID : 5
Format : UTF-8
Codec ID : S_TEXT/UTF8
Codec ID/Info : UTF-8 Plain Text
Duration : 21 min 43 s
Bit rate : 64 b/s
Count of elements : 312
Stream size : 10.3 KiB (0%)
Title : English [SDH]
Language : English
Default : No
Forced : No
Menu
00:00:00.000 : en:Amazon Original
00:00:05.000 : en:Studio Logo
00:00:47.000 : en:A game accidentally turns into a disaster
00:07:16.000 : en:The Temple of the Four Constellations
00:12:39.000 : en:The kids ask Master Po for help
00:17:35.000 : en:Unexpected trouble enters the panda village
00:22:02.000 : en:End Credits

Скриншоты



Display posts:    

Current time is: 26-May 10:55

All times are UTC ± 0


You cannot post new topics in this forum
You cannot reply to topics in this forum
You cannot edit your posts in this forum
You cannot delete your posts in this forum
You cannot vote in polls in this forum
You cannot attach files in this forum
You cannot download files in this forum

!ATTENTION!
The site does not give electronic versions of products, and is engaged only in a collecting and cataloguing of the references sent and published at a forum by our readers. If you are the legal owner of any submitted material and do not wish that the reference to it was in our catalogue, contact us and we shall immediately remove her. Files for an exchange on tracker are given by users of a site, and the administration does not bear the responsibility for their maintenance. The request to not fill in the files protected by copyrights, and also files of the illegal maintenance!