Кощей. Начало (Андрей Колпин) [2021, Россия, мультфильм, семейный, приключения, WEB-DLRip-AVC] Original (rus) + Sub (rus) :: Российский Торрент трекер
Российский Торрент трекер
Яндекс.Погода
 

[Quote]
HUNTER

Кощей. Начало
«От любви до вечности один шаг»
Страна: Россия
Жанр: мультфильм, семейный, приключения, фэнтези
Год выпуска: 2021
Продолжительность: 01:39:00
Перевод: Не требуется
Субтитры: русские (полные)
Оригинальная аудиодорожка: русский
Режиссер: Андрей Колпин
В ролях: Никита Волков, Ирина Старшенбаум, Арсений Перель, Тимур Родригез, Юрий Гальцев, Павел Баршак, Владислав Ветров, Ирина Медведева, Юлия Зимина, Мирослава Карпович, Ольга Кузьмина, Юлия Александрова, Полина Кутепова, Диомид Виноградов, Андрей Рожков, Даниил Эльдаров
Описание: В давние времена люди и сказочные существа жили вместе. Пока в Дивноземское княжество не нагрянул Белый призрак, безжалостный монстр, способный уничтожить весь мир. Но лишь одному герою под силу остановить чудище. Он молод, силен, красив, а еще водит байк… Его зовут Кощей.

Автор рипа: stalkerok
Сэмпл
Качество видео: WEB-DLRip-AVC | Исходник: Koshchey.Nachalo.2021.2160p.KP.WEB-DL.DDP5.1.HEVC-EniaHD
Формат видео: MKV
Видео кодек: AVC
Аудио кодек: AC3
Видео: AVC, 1598 Кбит/сек, 960x402 (2.40:1), 24 кадр/сек
Аудио: AC3, 448 Кбит/сек, 48 КГц, 5.1 - русский

x264/MediaInfo

---[Information] [07.11.2021 17:31:10] x264 [info]: frame I:1383 Avg QP:18.09 size: 54087
---[Information] [07.11.2021 17:31:10] x264 [info]: frame P:40082 Avg QP:20.36 size: 15251
---[Information] [07.11.2021 17:31:10] x264 [info]: frame B:101096 Avg QP:23.31 size: 4954
---[Information] [07.11.2021 17:31:10] x264 [info]: consecutive B-frames: 5.6% 5.5% 13.5% 38.6% 19.0% 13.2% 2.0% 0.9% 0.4% 0.9% 0.1% 0.2% 0.1% 0.1% 0.0%
General
Unique ID : 176709438608069650200294121343651714156 (0x84F0FFFB392CB0FC7B323BBEAE98946C)
Complete name : J:\Koshchey.Nachalo.2021\Koshchey.Nachalo.2021.KP.WEB-DLRip.x264.Rus.stalkerok.New-Team.mkv
Format : Matroska
Format version : Version 4 / Version 2
File size : 1.42 GiB
Duration : 1 h 39 min
Overall bit rate : 2 048 kb/s
Movie name : Кощей. Начало (2021) | Rip by stalkerok
Encoded date : UTC 2021-11-08 12:23:24
Writing application : mkvmerge v62.0.0 ('Apollo') 64-bit
Writing library : libebml v1.4.2 + libmatroska v1.6.4
Video
ID : 1
Format : AVC
Format/Info : Advanced Video Codec
Format profile : [email protected]
Format settings, CABAC : Yes
Format settings, ReFrames : 12 frames
Codec ID : V_MPEG4/ISO/AVC
Duration : 1 h 39 min
Bit rate : 1 599 kb/s
Width : 960 pixels
Height : 402 pixels
Display aspect ratio : 2.40:1
Frame rate mode : Constant
Frame rate : 24.000 FPS
Color space : YUV
Chroma subsampling : 4:2:0
Bit depth : 8 bits
Scan type : Progressive
Bits/(Pixel*Frame) : 0.173
Stream size : 1.11 GiB (78%)
Writing library : x264 core 164 r3065+55M 280faca t_mod_New [(8 & 10)[email protected] X86_64]
Encoding settings : cabac=1 / ref=12 / deblock=1:-1:-1 / analyse=0x3:0x133 / me=umh / subme=10 / psy=1 / fade_compensate=0.00 / psy_rd=1.00:0.00 / mixed_ref=1 / me_range=32 / chroma_me=1 / trellis=2 / 8x8dct=1 / cqm=0 / deadzone=21,11 / fast_pskip=0 / chroma_qp_offset=-2 / threads=12 / lookahead_threads=3 / sliced_threads=0 / nr=0 / decimate=1 / interlaced=0 / bluray_compat=0 / constrained_intra=0 / fgo=0 / bframes=14 / b_pyramid=2 / b_adapt=2 / b_bias=0 / direct=3 / weightb=1 / open_gop=0 / weightp=2 / keyint=240 / keyint_min=23 / scenecut=40 / intra_refresh=0 / rc_lookahead=60 / rc=crf / mbtree=0 / crf=19.5000 / qcomp=0.65 / qpmin=0:0:0 / qpmax=69:69:69 / qpstep=4 / vbv_maxrate=50000 / vbv_bufsize=62500 / crf_max=0.0 / nal_hrd=none / filler=0 / ip_ratio=1.40 / pb_ratio=1.30 / aq=3:0.80 / aq-sensitivity=10.00 / aq-factor=1.00:1.00:1.00 / aq2=0 / aq3=0
Default : Yes
Forced : No
Audio
ID : 2
Format : AC-3
Format/Info : Audio Coding 3
Mode extension : CM (complete main)
Format settings, Endianness : Big
Codec ID : A_AC3
Duration : 1 h 39 min
Bit rate mode : Constant
Bit rate : 448 kb/s
Channel(s) : 6 channels
Channel positions : Front: L C R, Side: L R, LFE
Sampling rate : 48.0 kHz
Frame rate : 31.250 FPS (1536 spf)
Compression mode : Lossy
Stream size : 317 MiB (22%)
Language : Russian
Default : Yes
Forced : No
Text
ID : 3
Format : UTF-8
Codec ID : S_TEXT/UTF8
Codec ID/Info : UTF-8 Plain Text
Duration : 1 h 38 min
Bit rate : 71 b/s
Count of elements : 956
Stream size : 51.8 KiB (0%)
Language : Russian
Default : No
Forced : No

Скриншоты



Display posts:    

Current time is: 29-Jan 06:43

All times are UTC ± 0


You cannot post new topics in this forum
You cannot reply to topics in this forum
You cannot edit your posts in this forum
You cannot delete your posts in this forum
You cannot vote in polls in this forum
You cannot attach files in this forum
You cannot download files in this forum

!ATTENTION!
The site does not give electronic versions of products, and is engaged only in a collecting and cataloguing of the references sent and published at a forum by our readers. If you are the legal owner of any submitted material and do not wish that the reference to it was in our catalogue, contact us and we shall immediately remove her. Files for an exchange on tracker are given by users of a site, and the administration does not bear the responsibility for their maintenance. The request to not fill in the files protected by copyrights, and also files of the illegal maintenance!