Ивановский Торрент трекер
Яндекс.Погода
 

[Quote]
HUNTER

Комната / The Room- Страна:
Жанр: драма, мелодрама
Год выпуска: 2003
Продолжительность: 1:39:36
Многоголосая озвучка от:

Yu, Leonhart, Chirick, Daniel (муж.)
VereneyR, Murrzik (жен.)

-Режиссер: Томми Вайсо / Tommy Wiseau
В ролях: Томми Вайсо, Джульетт Даниэль, Грег Сестеро, Филип Халдиман, Кэролин Миннотт, Робин Пэрис, Майк Холмс, Дэн Джанджиджиан
Описание: У Джонни есть всё — отличная работа, квартира в Сан-Франциско, лучший друг Марк и невеста Лиза, и близится его день рождения. Но все меняется, когда Марк и Лиза заводят роман…

[box]Тип релиза: BDRemux 1080p-Видео: AVC, 8 bit, 1920x1080, ~15 Mbps, 23.976 fps
Аудио:
1: AC3, 192 kbps, 48.0 KHz, stereo; MVO (AniPlague)
2: AC3, 192 kbps, 48.0 KHz, stereo; VO (Zебуро)
3: AC3, 448 kbps, 48.0 KHz, 5.1
Субтитры:
1: SRT, (полные);
2: SDH SRT, (полные);
[/box]

Подробные тех. данные

Общее
Уникальный идентификатор : 177371709001990179691822800138579687843 (0x85708C6EC8539C209FE0A7281FFB39A3)
Полное имя : D:\Раздача\[AniPlague] - Комната [1080p.Remux.x264].mkv
Формат : Matroska
Версия формата : Version 4 / Version 2
Размер файла : 11,0 Гбайт
Продолжительность : 1 ч. 39 м.
Режим общего битрейта : Переменный
Общий поток : 15,8 Мбит/сек
Название фильма : The Room (2003)
Дата кодирования : UTC 2018-02-28 20:00:10
Программа кодирования : mkvmerge v16.0.0 ('Protest') 64-bit
Библиотека кодирования : libebml v1.3.5 + libmatroska v1.4.8
Видео
Идентификатор : 1
Формат : AVC
Формат/Информация : Advanced Video Codec
Профиль формата : [email protected]
Настройки формата : CABAC / 4 Ref Frames
Параметр CABAC формата : Да
Параметр RefFrames формата : 4 кадра
Идентификатор кодека : V_MPEG4/ISO/AVC
Продолжительность : 1 ч. 39 м.
Вид битрейта : Переменный
Битрейт : 15,0 Мбит/сек
Максимальный битрейт : 30,0 Мбит/сек
Ширина : 1920 пикселей
Высота : 1080 пикселей
Соотношение сторон : 16:9
Режим частоты кадров : Постоянный
Частота кадров : 23,976 (24000/1001) кадра/сек
Стандарт вещания : NTSC
Цветовое пространство : YUV
Субдискретизация насыщенности : 4:2:0
Битовая глубина : 8 бит
Тип развёртки : Прогрессивная
Бит/(Пиксели*Кадры) : 0.302
Размер потока : 10,4 Гбайт (95%)
Язык : English
Default : Да
Forced : Да
Цветовой диапазон : Limited
Основные цвета : BT.709
Характеристики трансфера : BT.709
Коэффициенты матрицы : BT.709
Аудио #1
Идентификатор : 2
Формат : AC-3
Формат/Информация : Audio Coding 3
Идентификатор кодека : A_AC3
Продолжительность : 1 ч. 39 м.
Вид битрейта : Постоянный
Битрейт : 192 Кбит/сек
Каналы : 2 канала
Расположение каналов : Front: L R
Частота : 48,0 КГц
Частота кадров : 31,250 кадров/сек (1536 SPF)
Битовая глубина : 16 бит
Метод сжатия : С потерями
Размер потока : 161 Мбайт (1%)
Заголовок : AniPlague
Язык : Russian
ServiceKind/String : Complete Main
Default : Да
Forced : Да
Аудио #2
Идентификатор : 3
Формат : AC-3
Формат/Информация : Audio Coding 3
Идентификатор кодека : A_AC3
Продолжительность : 1 ч. 39 м.
Вид битрейта : Постоянный
Битрейт : 192 Кбит/сек
Каналы : 2 канала
Расположение каналов : Front: L R
Частота : 48,0 КГц
Частота кадров : 31,250 кадров/сек (1536 SPF)
Битовая глубина : 16 бит
Метод сжатия : С потерями
Размер потока : 137 Мбайт (1%)
Заголовок : Zебуро
Язык : Russian
ServiceKind/String : Complete Main
Default : Нет
Forced : Нет
Аудио #3
Идентификатор : 4
Формат : AC-3
Формат/Информация : Audio Coding 3
Идентификатор кодека : A_AC3
Продолжительность : 1 ч. 39 м.
Вид битрейта : Постоянный
Битрейт : 448 Кбит/сек
Каналы : 6 каналов
Расположение каналов : Front: L C R, Side: L R, LFE
Частота : 48,0 КГц
Частота кадров : 31,250 кадров/сек (1536 SPF)
Битовая глубина : 16 бит
Метод сжатия : С потерями
Размер потока : 319 Мбайт (3%)
Заголовок : English DD 5.1 @ 448kbps
Язык : English
ServiceKind/String : Complete Main
Default : Нет
Forced : Нет
Текст #1
Идентификатор : 5
Формат : UTF-8
Идентификатор кодека : S_TEXT/UTF8
Идентификатор кодека/Информация : UTF-8 Plain Text
Продолжительность : 1 ч. 34 м.
Битрейт : 99 бит/сек
ElementCount : 1190
Размер потока : 68,6 Кбайт (0%)
Заголовок : RUS SRT
Язык : Russian
Default : Нет
Forced : Нет
Текст #2
Идентификатор : 6
Формат : UTF-8
Идентификатор кодека : S_TEXT/UTF8
Идентификатор кодека/Информация : UTF-8 Plain Text
Продолжительность : 1 ч. 37 м.
Битрейт : 71 бит/сек
ElementCount : 1447
Размер потока : 51,5 Кбайт (0%)
Заголовок : ENG SDH SRT
Язык : English
Default : Нет
Forced : Нет
Меню
00:00:00.000 : en:Main Titles
00:02:58.553 : en:Lady In Red
00:04:07.497 : en:Denny Wants To Watch
00:05:18.610 : en:Johnny and Lisa's Love Scene
00:09:04.043 : en:Johnny Wakes Up
00:10:05.688 : en:Like Mother Like Daughter
00:12:28.873 : en:Lisa Calls Mark
00:13:45.033 : en:Seduction
00:20:32.189 : en:Flower Shop
00:21:17.151 : en:Lisa Orders Pizza
00:21:37.630 : en:Denny Wants A Kiss
00:22:19.797 : en:Dozen of Red Roses
00:23:52.848 : en:I'm Tired, I'm Wasted
00:27:13.757 : en:Cancer
00:29:26.473 : en:Chocolate Is A Symbol of Love
00:31:11.495 : en:Grand Central Station
00:33:35.805 : en:Chris-R
00:37:15.191 : en:I Just Saw You
00:38:03.239 : en:"I Did Not Hit Her, I Did Not!"
00:42:40.183 : en:Girl Talk
00:44:31.127 : en:"You're Tearing Me Apart, Lisa!"
00:46:57.690 : en:Underwear
00:49:09.572 : en:Johnny Eavesdrops
00:50:17.932 : en:"I'll Record Everything"
00:51:42.141 : en:Love Is Blind
00:56:36.602 : en:Lisa and Denny
00:57:55.263 : en:Mark and Peter's Fight
01:00:58.780 : en:Cheep Cheep Cheep
01:01:55.503 : en:Football in Tuxedos
01:02:48.932 : en:Coffee Shop
01:04:40.293 : en:Lisa and Mark Love Scene
01:07:41.557 : en:Golden Gate Park
01:09:01.721 : en:X Y Z
01:12:46.862 : en:That's the Idea
01:14:04.398 : en:Mother Advises Daughter
01:16:26.540 : en:Johnny's Suprise Party
01:21:07.696 : en:"We're Expecting!"
01:23:43.018 : en:Fight at the Party
01:24:51.128 : en:Betrayal
01:26:27.682 : en:"We'll See About That."
01:30:59.579 : en:Rage
01:37:02.608 : en:End Credits

Скриншоты



Display posts:    

Current time is: 16-Oct 10:54

All times are UTC ± 0


You cannot post new topics in this forum
You cannot reply to topics in this forum
You cannot edit your posts in this forum
You cannot delete your posts in this forum
You cannot vote in polls in this forum
You cannot attach files in this forum
You cannot download files in this forum

!ATTENTION!
The site does not give electronic versions of products, and is engaged only in a collecting and cataloguing of the references sent and published at a forum by our readers. If you are the legal owner of any submitted material and do not wish that the reference to it was in our catalogue, contact us and we shall immediately remove her. Files for an exchange on tracker are given by users of a site, and the administration does not bear the responsibility for their maintenance. The request to not fill in the files protected by copyrights, and also files of the illegal maintenance!