Российский Торрент трекер
Яндекс.Погода
 

[Quote]
Bad Boy

Коломбиана / Colombiana-Год выпуска: 2011
Страна: США, Франция
Жанр: Боевик, триллер, драма, криминал
Продолжительность: 01:51:35
Перевод: Профессиональный дублированный Лицензия
Субтитры:русские форсированные (вшитые)-Режиссер: Оливье Мегатон / Olivier Megaton-В ролях: Зои Салдана (Cataleya), Жорди Молья (Marco), Ленни Джеймс (Ross), Амандла Стенберг (Cat - 10), Майкл Вартан (Danny Delanay), Клифф Кёртис (Emilio Restrepo), Бету Бенитес (Don Luis), Джесси Боррего (Fabio), Синтия Аддай-Робинсон (Alicia), Энджел Гарница (Pepe), Офелия Медина (Mama), Каллум Блу (Richard)-Описание: Кат было всего десять, когда на ее глазах неизвестные жестоко убили ее родителей. Девочка сумела убежать от бандитов и найти убежище в Чикаго у своего дяди. Теперь Кат профессиональный убийца. Во что бы то ни стало она должна распутать клубок давнего преступления и отомстить за смерть родителей. Все следы ведут к колумбийскому наркобарону Дону Лусиа. Единственная нить, соединяющая девушку-убийцу с миром обычных людей - это ее возлюбленный, который не догадывается, чем на самом деле занимается его подружка...

UNRATED-версия не выходила в дубляже. Отсутствует ~ 8 минут перевода! На эти места присутствуют субтитры
СЭМПЛ
Качество видео: BDRip(Исх. BDRemux)
Формат видео: AVI
Видео:720x304 (2.37:1), 23.976 fps, XviD build 50 ~1414 kbps avg, 0.27 bit/pixel
Аудио:48 kHz, AC3 Dolby Digital, 3/2 (L,C,R,l,r) + LFE ch, ~448 kbps

Скриншоты

MediaInfo

General
Complete name : D:\Dawnloads\Kolombiana.Unrated.chopper887.avi
Format : AVI
Format/Info : Audio Video Interleave
File size : 1.46 GiB
Duration : 1h 51mn
Overall bit rate : 1 872 Kbps
Writing application : VirtualDubMod 1.5.10.3 | www.virtualdub-fr.org || (build 2550/release)
Writing library : VirtualDubMod build 2550/release
Video
ID : 0
Format : MPEG-4 Visual
Format profile : Advanced [email protected]
Format settings, BVOP : 2
Format settings, QPel : No
Format settings, GMC : No warppoints
Format settings, Matrix : Custom
Codec ID : XVID
Codec ID/Hint : XviD
Duration : 1h 51mn
Bit rate : 1 415 Kbps
Width : 720 pixels
Height : 304 pixels
Display aspect ratio : 2.35:1
Frame rate : 23.976 fps
Color space : YUV
Chroma subsampling : 4:2:0
Bit depth : 8 bits
Scan type : Progressive
Compression mode : Lossy
Bits/(Pixel*Frame) : 0.270
Stream size : 1.10 GiB (76%)
Writing library : XviD 1.2.1 (UTC 2008-12-04)
Audio
ID : 1
Format : AC-3
Format/Info : Audio Coding 3
Mode extension : CM (complete main)
Codec ID : 2000
Duration : 1h 51mn
Bit rate mode : Constant
Bit rate : 448 Kbps
Channel(s) : 6 channels
Channel positions : Front: L C R, Side: L R, LFE
Sampling rate : 48.0 KHz
Bit depth : 16 bits
Compression mode : Lossy
Stream size : 357 MiB (24%)
Alignment : Split accross interleaves
Interleave, duration : 42 ms (1.00 video frame)
Interleave, preload duration : 500 ms


Display posts:    

Current time is: 09-Dec 04:00

All times are UTC ± 0


You cannot post new topics in this forum
You cannot reply to topics in this forum
You cannot edit your posts in this forum
You cannot delete your posts in this forum
You cannot vote in polls in this forum
You cannot attach files in this forum
You cannot download files in this forum

!ATTENTION!
The site does not give electronic versions of products, and is engaged only in a collecting and cataloguing of the references sent and published at a forum by our readers. If you are the legal owner of any submitted material and do not wish that the reference to it was in our catalogue, contact us and we shall immediately remove her. Files for an exchange on tracker are given by users of a site, and the administration does not bear the responsibility for their maintenance. The request to not fill in the files protected by copyrights, and also files of the illegal maintenance!