Ивановский Торрент трекер
Яндекс.Погода
 

[Quote]
HUNTER

Кикбоксер возвращается / Kickboxer: Retaliation
Страна: США
Студия: Our House Films, Head Gear Films, Metrol Technology
Жанр: боевик, драма
Год выпуска: 2018
Продолжительность: 01:50:23
Перевод: Авторский (одноголосый закадровый) Гаврилов
Субтитры: английские
Оригинальная аудиодорожка: английский
Режиссер: Димитри Логотетис / Dimitri Logothetis
В ролях: Ален Мусси, Кристофер Ламберт, Жан-Клод Ван Дамм, Майк Тайсон, Сара Малакул Лэйн, Хафтор Бьёрнсон, Сэм Медина, Steven Swadling, Miles Strommen, Джессика Янн
Описание: Юному бойцу необходимо одолеть нового «Халка» из Скандинавии. Под руководством тренера он укрепит свой дух, а спарринги прокачают тело.
| IMDB | КиноПоиск | Сэмпл |
Тип релиза: WEB-DL 1080p
Контейнер: MKV
Видео: MPEG-4 AVC Video 4543 Кbps 1920x802 / 23,976 fps
Аудио: Dolby Digital Audio Russian 384 kbps 5.1 / 48 kHz
Аудио 2: Dolby Digital Audio English 384 kbps 5.1 / 48 kHz
Формат субтитров: softsub (SRT)
Дополнительно: Сохранены оригинальные чаптеры

MediaInfo

Формат : Matroska
Версия формата : Version 2
Размер файла : 4,10 Гбайт
Продолжительность : 1 ч. 50 м.
Общий поток : 5313 Кбит/сек
Дата кодирования : UTC 2018-03-05 19:29:16
Программа кодирования : mkvmerge v8.3.0 ('Over the Horizon') 64bit
Библиотека кодирования : libebml v1.3.1 + libmatroska v1.4.2
Видео
Идентификатор : 1
Формат : AVC
Формат/Информация : Advanced Video Codec
Профиль формата : [email protected]
Настройки формата : CABAC / 5 Ref Frames
Параметр CABAC формата : Да
Параметр RefFrames формата : 5 кадров
Идентификатор кодека : V_MPEG4/ISO/AVC
Продолжительность : 1 ч. 50 м.
Битрейт : 4543 Кбит/сек
Ширина : 1920 пикселей
Высота : 802 пикселя
Соотношение сторон : 2,40:1
Режим частоты кадров : Постоянный
Частота кадров : 23,976 (23976/1000) кадра/сек
Цветовое пространство : YUV
Субдискретизация насыщенности : 4:2:0
Битовая глубина : 8 бит
Тип развёртки : Прогрессивная
Бит/(Пиксели*Кадры) : 0.123
Размер потока : 3,50 Гбайт (86%)
Язык : English
Default : Да
Forced : Нет
Цветовой диапазон : Limited
Основные цвета : BT.709
Характеристики трансфера : BT.709
Коэффициенты матрицы : BT.709
Аудио #1
Идентификатор : 2
Формат : AC-3
Формат/Информация : Audio Coding 3
Идентификатор кодека : A_AC3
Продолжительность : 1 ч. 50 м.
Вид битрейта : Постоянный
Битрейт : 384 Кбит/сек
Каналы : 6 каналов
Расположение каналов : Front: L C R, Side: L R, LFE
Частота : 48,0 КГц
Частота кадров : 31,250 кадров/сек (1536 SPF)
Битовая глубина : 16 бит
Метод сжатия : С потерями
Размер потока : 303 Мбайт (7%)
Язык : Russian
ServiceKind/String : Complete Main
Default : Да
Forced : Нет
Аудио #2
Идентификатор : 3
Формат : AC-3
Формат/Информация : Audio Coding 3
Идентификатор кодека : A_AC3
Продолжительность : 1 ч. 50 м.
Вид битрейта : Постоянный
Битрейт : 384 Кбит/сек
Каналы : 6 каналов
Расположение каналов : Front: L C R, Side: L R, LFE
Частота : 48,0 КГц
Частота кадров : 31,250 кадров/сек (1536 SPF)
Битовая глубина : 16 бит
Метод сжатия : С потерями
Размер потока : 303 Мбайт (7%)
Язык : English
ServiceKind/String : Complete Main
Default : Нет
Forced : Нет
Текст
Идентификатор : 4
Формат : UTF-8
Идентификатор кодека : S_TEXT/UTF8
Идентификатор кодека/Информация : UTF-8 Plain Text
Продолжительность : 1 ч. 49 м.
Битрейт : 29 бит/сек
ElementCount : 1017
Размер потока : 24,0 Кбайт (0%)
Язык : English
Default : Нет
Forced : Нет
Меню
00:00:00.000 : en:1
00:14:47.554 : en:2
00:29:04.786 : en:3
00:40:07.114 : en:4
00:51:54.029 : en:5
01:05:04.360 : en:6
01:16:38.470 : en:7
01:31:06.921 : en:8

Скриншоты



Display posts:    

Current time is: 16-Oct 11:35

All times are UTC ± 0


You cannot post new topics in this forum
You cannot reply to topics in this forum
You cannot edit your posts in this forum
You cannot delete your posts in this forum
You cannot vote in polls in this forum
You cannot attach files in this forum
You cannot download files in this forum

!ATTENTION!
The site does not give electronic versions of products, and is engaged only in a collecting and cataloguing of the references sent and published at a forum by our readers. If you are the legal owner of any submitted material and do not wish that the reference to it was in our catalogue, contact us and we shall immediately remove her. Files for an exchange on tracker are given by users of a site, and the administration does not bear the responsibility for their maintenance. The request to not fill in the files protected by copyrights, and also files of the illegal maintenance!