Ивановский Торрент трекер
Яндекс.Погода
 

[Quote]
HUNTER

Хранитель снов| Властелин легенд | DreamKeeper- Страна: США, Канада, Германия
Студия: Hallmark Entertainment
Жанр: фэнтези, приключения
Год выпуска: 2003
Продолжительность: 01:30:12 + 01:32:00
Перевод: Профессиональный |многоголосый закадровый| x 2
Субтитры: русские, английские
Оригинальная аудиодорожка: английский
Режиссер: Стив Бэррон | Steve Barron
В ролях: Аугуст Шелленберг, Эдди Спирс, Гэри Фармер, Джон Труделл, Чэск Спенсер, Тенейл Уискиджек, Алекс Райс, Майкл Грейес, Танту Кардинал, Дакота Хаус
Описание: Почти столетний Пит хранит историю своего индейского племени. Но его 17 -летний внук Шейн, член уличной банды «Псы-воины», далек от всего этого. Лишь задолжав своим товарищам по банде крупную сумму денег, он согласился отвезти дедушку на ежегодный совет племен в штат Нью-Мексико, за много сотен миль от родной Южной Дакоты. По пути Пит рассказывает ему легенды племени, которые Шейн должен обязательно запомнить и передать своим потомкам. Эта поездка навсегда изменит его жизнь…
Доп. информация: IMDB 7.7 | КиноПоиск 7.8 | Сэмпл
Тип релиза: BDRip 720p
Контейнер: MKV
Видео: AVC, 1280х720, 16:9, 4441 kbps, 23.976 fps
Аудио 1: Русский | MP3, 2 ch, 48 kHz, 320 kbps |Многоголосый закадровый|
Аудио 2: Русский | AC3, 2 ch, 48 kHz, 192 kbps |Многоголосый закадровый, Екатеринбург Арт|
Аудио 3: English | AC3, 6 ch, 48 kHz, 640 kbps |Original|
Формат субтитров: softsub |SRT|

MediaInfo

General
Complete name : DreamKeeper_1 (2003).mkv
Format : Matroska
Format version : Version 4 / Version 2
File size : 3.52 GiB
Duration : 1h 30mn
Overall bit rate : 5 581 Kbps
Movie name : DreamKeeper [E01] (2003)
Encoded date : UTC 2018-03-11 15:25:46
Writing application : mkvmerge v7.7.0 ('Six Voices') 64bit built on Feb 28 2015 23:39:33
Writing library : libebml v1.3.1 + libmatroska v1.4.2
_STATISTICS_WRITING_APP : mkvmerge v7.7.0 ('Six Voices') 64bit built on Feb 28 2015 23:39:33
_STATISTICS_WRITING_DATE_UTC : 2018-03-11 15:25:46
_STATISTICS_TAGS : BPS DURATION NUMBER_OF_FRAMES NUMBER_OF_BYTES
DURATION : 01:27:43.016000000
NUMBER_OF_FRAMES : 780
NUMBER_OF_BYTES : 29173
Video
ID : 1
Format : AVC
Format/Info : Advanced Video Codec
Format profile : [email protected]
Format settings, CABAC : Yes
Format settings, ReFrames : 9 frames
Codec ID : V_MPEG4/ISO/AVC
Duration : 1h 30mn
Bit rate : 4 441 Kbps
Width : 1 280 pixels
Height : 720 pixels
Display aspect ratio : 16:9
Frame rate mode : Constant
Frame rate : 23.976 fps
Color space : YUV
Chroma subsampling : 4:2:0
Bit depth : 8 bits
Scan type : Progressive
Bits/(Pixel*Frame) : 0.201
Stream size : 2.72 GiB (77%)
Title : DreamKeeper [E01] (2003)
Writing library : x264 core 148 r2638 7599210
Encoding settings : cabac=1 / ref=9 / deblock=1:-3:-3 / analyse=0x3:0x133 / me=umh / subme=11 / psy=1 / psy_rd=1.00:0.00 / mixed_ref=1 / me_range=32 / chroma_me=1 / trellis=2 / 8x8dct=1 / cqm=0 / deadzone=21,11 / fast_pskip=1 / chroma_qp_offset=-2 / threads=6 / lookahead_threads=1 / sliced_threads=0 / nr=0 / decimate=1 / interlaced=0 / bluray_compat=0 / constrained_intra=0 / bframes=5 / b_pyramid=2 / b_adapt=2 / b_bias=0 / direct=3 / weightb=1 / open_gop=0 / weightp=2 / keyint=240 / keyint_min=23 / scenecut=40 / intra_refresh=0 / rc_lookahead=60 / rc=2pass / mbtree=1 / bitrate=4441 / ratetol=1.0 / qcomp=0.60 / qpmin=0 / qpmax=69 / qpstep=4 / cplxblur=20.0 / qblur=0.5 / vbv_maxrate=50000 / vbv_bufsize=62500 / nal_hrd=none / filler=0 / ip_ratio=1.40 / aq=1:1.00
Language : English
Default : Yes
Forced : No
Audio #1
ID : 2
Format : MPEG Audio
Format version : Version 1
Format profile : Layer 3
Mode : Joint stereo
Mode extension : MS Stereo
Codec ID : A_MPEG/L3
Codec ID/Hint : MP3
Duration : 1h 30mn
Bit rate mode : Constant
Bit rate : 320 Kbps
Channel count : 2 channels
Sampling rate : 48.0 KHz
Compression mode : Lossy
Delay relative to video : 100ms
Stream size : 206 MiB (6%)
Title : MP3, 2 ch, 320 kbps, MVO
Writing library : LAME3.97
Language : Russian
Default : Yes
Forced : No
Audio #2
ID : 3
Format : AC-3
Format/Info : Audio Coding 3
Mode extension : CM (complete main)
Format settings, Endianness : Big
Codec ID : A_AC3
Duration : 1h 30mn
Bit rate mode : Constant
Bit rate : 192 Kbps
Channel count : 2 channels
Channel positions : Front: L R
Sampling rate : 48.0 KHz
Bit depth : 16 bits
Compression mode : Lossy
Stream size : 124 MiB (3%)
Title : AC3, 2 ch, 192 kbps, MVO (Ekaterinburg Art)
Language : Russian
Default : No
Forced : No
Audio #3
ID : 4
Format : AC-3
Format/Info : Audio Coding 3
Mode extension : CM (complete main)
Format settings, Endianness : Big
Codec ID : A_AC3
Duration : 1h 30mn
Bit rate mode : Constant
Bit rate : 640 Kbps
Channel count : 6 channels
Channel positions : Front: L C R, Side: L R, LFE
Sampling rate : 48.0 KHz
Bit depth : 16 bits
Compression mode : Lossy
Stream size : 413 MiB (11%)
Title : AC3, 6 ch, 640 Kbps, Original
Language : English
Default : No
Forced : No
Text #1
ID : 5
Format : UTF-8
Codec ID : S_TEXT/UTF8
Codec ID/Info : UTF-8 Plain Text
Language : Russian
Default : No
Forced : No
Text #2
ID : 6
Format : UTF-8
Codec ID : S_TEXT/UTF8
Codec ID/Info : UTF-8 Plain Text
Language : English
Default : No
Forced : No
Menu
00:00:00.000 : en:00:00:00.000
00:07:17.228 : en:00:07:17.228
00:14:55.185 : en:00:14:55.185
00:21:36.044 : en:00:21:36.044
00:29:05.994 : en:00:29:05.994
00:37:02.428 : en:00:37:02.428
00:44:31.043 : en:00:44:31.043
00:50:57.971 : en:00:50:57.971
00:58:10.820 : en:00:58:10.820
01:07:36.594 : en:01:07:36.594
01:13:14.973 : en:01:13:14.973
01:20:40.877 : en:01:20:40.877
01:30:11.697 : en:01:30:11.697

Настоящему индейцу

Я бы порекомендовал чуть ли не каждый второй фильм о индейцах, снятый после 1990 г. Есть много хороших фильмов и более раннего периода, но в них роли индейцев как правило исполняют профессиональные (т.е. белые) актеры. В общем, точкой отсчета "настоящего индейского" кино является "Танцы с Волками" (1990). Назову еще кое что из того, что приходит на ум: "Джеронимо" (1993), "Джеронимо-Американская Легенда" (1993), Бешеный Конь, Последний Из Племени (где-то тут я его выкладывал), Черная Сутана, Чудо В Глуши, Разорванная Цепь, Властелин Легенд (2003), Схороните Мое Сердце У Вундед Ни (2003), Похищенная (Последний Рейд), Река Ветров, На Запад (минисериал), Серая Сова, Последний Из Могикан (1992) - это из того, что вполне доступно в сети. Например здесь
Kwasi N.D. (с)
http://rutracker.org/forum/viewtopic.php?p=62088535#62088535-Танцующий с волками / Dances with Wolves (1990)
Черная сутана / Черное одеяние / Black Robe (1991)
Чудо в глуши / Miracle in the wilderness (1991)
Луна над Лакота / Lakota Moon (1992)
Последний из могикан / The Last of the Mohicans (1992)
Последний из племени / The Last Of His Tribe (1992)
Джеронимо / Geronimo (1993)
Джеронимо: Американская легенда / Geronimo: An American Legend (1993)
Разорванная цепь / The Broken Chain (1993)
Текумзе: последний воин / Tecumseh: The Last Warrior (1995)
Мертвец / Dead Man (1995)
Бешеный конь / Crazy Horse (1996)
Река ветров / Wind River (1998)
Большой медведь / Big Bear (1998)
Серая сова / Grey Owl (1999)
Последний рейд / Пропавшая / The Missing (2003)
Хранитель снов / Властелин легенд / DreamKeeper (2003)
Блубери / Blueberry (2004)
На Запад / Into the West (2005)
Новый Свет / The New World (2005)
Похороните моё сердце у Вундед-Ни / Bury My Heart at Wounded Knee (2007)
Майна / Maina (2013)
Недруги / Hostiles (2017)


Display posts:    

Current time is: 23-Oct 18:31

All times are UTC ± 0


You cannot post new topics in this forum
You cannot reply to topics in this forum
You cannot edit your posts in this forum
You cannot delete your posts in this forum
You cannot vote in polls in this forum
You cannot attach files in this forum
You cannot download files in this forum

!ATTENTION!
The site does not give electronic versions of products, and is engaged only in a collecting and cataloguing of the references sent and published at a forum by our readers. If you are the legal owner of any submitted material and do not wish that the reference to it was in our catalogue, contact us and we shall immediately remove her. Files for an exchange on tracker are given by users of a site, and the administration does not bear the responsibility for their maintenance. The request to not fill in the files protected by copyrights, and also files of the illegal maintenance!