Ивановский Торрент трекер
Яндекс.Погода
 

[Quote]
HUNTER

Хит
Страна: Россия
Студия: Trikita
Жанр: драма
Год выпуска: 2017
Продолжительность: 01:32:12
Перевод: Не требуется
Субтитры: русские неотключаемые на иностранную речь
Оригинальная аудиодорожка: русский
Режиссёр: Маргарита Михайлова
В ролях: Софья Озерова, Алена Тойминцева, Петр Скворцов, Юлия Ауг, Юрий Чурсин, Хусейн Дилбер, Полина Ауг, Алексей Вертков, Александр Горчилин, Ян Гэ

Описание: Москва… Город прозрачный и светлый, пастельный, почти призрачный. Город ночных огней, ритма и бешеной скорости. Две юные судьбы, две истории любви майской столицы… Юля — студентка кафедры архитектуры — мечтает создать проект невероятного здания и стать знаменитой. Катя — фотограф и певица — грезит о том, чтобы стать звездой и петь на сцене. Талантливые, красивые, юные и азартные, они приехали из провинции, им пока не хватает везения, но они понимают: Москва слезам не верит. Каждая своим путем, они пробиваются к своему счастью, не подозревая, что однажды они окажутся в пространстве на грани темноты и света, где все изменится, когда в их жизнь ворвется любовь…
Кинопоиск
Sample
Тип релиза: WEB-DL 1080p
Контейнер: MKV
Видео: MPEG4 AVC Video, H264, 1920x804, 24 fps, 4475 kbps
Аудио: Russian (AC3, 6 ch, 384 kbps, 16 bits, 48.0 KHz) - оригинал

MediaInfo

General
Unique ID : 222248759562700053467204323222928973888 (0xA7338DDA7230CC1EB3478D2240976040)
Complete name : D:\Хит 2017 WEB-DL 1080p.mkv
Format : Matroska
Format version : Version 2
File size : 3.19 GiB
Duration : 1h 32mn
Overall bit rate : 4 958 Kbps
Encoded date : UTC 2018-03-07 19:43:30
Writing application : mkvmerge v8.3.0 ('Over the Horizon') 64bit
Writing library : libebml v1.3.1 + libmatroska v1.4.2
DURATION : 01:32:12.352000000
NUMBER_OF_FRAMES : 172886
NUMBER_OF_BYTES : 265552896
_STATISTICS_WRITING_APP : mkvmerge v8.3.0 ('Over the Horizon') 64bit
_STATISTICS_WRITING_DATE_UTC : 2018-03-07 19:43:30
_STATISTICS_TAGS : BPS DURATION NUMBER_OF_FRAMES NUMBER_OF_BYTES
Video
ID : 1
Format : AVC
Format/Info : Advanced Video Codec
Format profile : [email protected]
Format settings, CABAC : Yes
Format settings, ReFrames : 5 frames
Codec ID : V_MPEG4/ISO/AVC
Duration : 1h 32mn
Bit rate : 4 475 Kbps
Width : 1 920 pixels
Height : 804 pixels
Display aspect ratio : 2.40:1
Frame rate mode : Constant
Frame rate : 24.000 fps
Color space : YUV
Chroma subsampling : 4:2:0
Bit depth : 8 bits
Scan type : Progressive
Bits/(Pixel*Frame) : 0.121
Stream size : 2.88 GiB (90%)
Language : English
Default : Yes
Forced : No
Color primaries : BT.709
Transfer characteristics : BT.709
Matrix coefficients : BT.709
Audio
ID : 2
Format : AC-3
Format/Info : Audio Coding 3
Mode extension : CM (complete main)
Format settings, Endianness : Big
Codec ID : A_AC3
Duration : 1h 32mn
Bit rate mode : Constant
Bit rate : 384 Kbps
Channel count : 6 channels
Channel positions : Front: L C R, Side: L R, LFE
Sampling rate : 48.0 KHz
Bit depth : 16 bits
Compression mode : Lossy
Stream size : 253 MiB (8%)
Language : Russian
Default : Yes
Forced : No
Menu
00:00:00.000 : en:Глава 1
00:06:16.708 : en:Глава 2
00:13:48.791 : en:Глава 3
00:19:56.666 : en:Глава 4
00:27:17.124 : en:Глава 5
00:35:17.707 : en:Глава 6
00:41:27.040 : en:Глава 7
00:49:19.623 : en:Глава 8
00:56:28.873 : en:Глава 9
01:02:59.081 : en:Глава 10
01:08:40.164 : en:Глава 11
01:15:38.289 : en:Глава 12
01:22:38.997 : en:Глава 13

Скриншоты




Display posts:    

Current time is: 22-Oct 00:59

All times are UTC ± 0


You cannot post new topics in this forum
You cannot reply to topics in this forum
You cannot edit your posts in this forum
You cannot delete your posts in this forum
You cannot vote in polls in this forum
You cannot attach files in this forum
You cannot download files in this forum

!ATTENTION!
The site does not give electronic versions of products, and is engaged only in a collecting and cataloguing of the references sent and published at a forum by our readers. If you are the legal owner of any submitted material and do not wish that the reference to it was in our catalogue, contact us and we shall immediately remove her. Files for an exchange on tracker are given by users of a site, and the administration does not bear the responsibility for their maintenance. The request to not fill in the files protected by copyrights, and also files of the illegal maintenance!