Ивановский Торрент трекер
Яндекс.Погода
 

[Quote]
HUNTER

Карп отмороженный
Страна: Россия
Студия: КиноКластер
Жанр: комедия, драма
Год выпуска: 2017
Продолжительность: 01:39:33
Перевод: Не требуется
Субтитры: нет
Оригинальная аудиодорожка: русский
Режиссер: Владимир Котт
В ролях: Марина Неёлова, Алиса Фрейндлих, Евгений Миронов, Сергей Пускепалис, Александр Баширов, Наталья Суркова, Татьяна Рассказова, Антон Шпиньков, Артем Лещик, Анна Екатерининская

Описание: Елена Михайловна скромно живёт на пенсии в провинциальном городке. Неожиданно для себя она узнаёт о смертельном диагнозе, который может в любой момент оборвать её жизнь. Чтобы лишний раз не тревожить любимого, но постоянно занятого сына, работающего в большом городе бизнес-тренером, и избавить его от потенциальных забот, Елена Михайловна берет дело в свои руки и принимается активно хлопотать над организацией собственных похорон.

Sample
Тип релиза: WEB-DL 1080p
Контейнер: MKV
Видео: MPEG4 AVC Video, H264, 1912x1032, 23.976 fps, 5028 kbps
Аудио: Russian (AC3, 6 ch, 384 kbps, 16 bits, 48.0 KHz) - оригинал

MediaInfo

General
Unique ID : 252765987692714785211189505280172008563 (0xBE28F55DC406DED4ADB6CE0BE5C2A473)
Complete name : D:\Карп отмороженный 2017 WEB-DL 1080p.mkv
Format : Matroska
Format version : Version 2
File size : 3.84 GiB
Duration : 1h 39mn
Overall bit rate : 5 522 Kbps
Encoded date : UTC 2018-02-18 21:44:45
Writing application : mkvmerge v8.3.0 ('Over the Horizon') 64bit
Writing library : libebml v1.3.1 + libmatroska v1.4.2
DURATION : 01:39:33.632000000
NUMBER_OF_FRAMES : 186676
NUMBER_OF_BYTES : 286734336
_STATISTICS_WRITING_APP : mkvmerge v8.3.0 ('Over the Horizon') 64bit
_STATISTICS_WRITING_DATE_UTC : 2018-02-18 21:44:45
_STATISTICS_TAGS : BPS DURATION NUMBER_OF_FRAMES NUMBER_OF_BYTES
Video
ID : 1
Format : AVC
Format/Info : Advanced Video Codec
Format profile : [email protected]
Format settings, CABAC : Yes
Format settings, ReFrames : 4 frames
Codec ID : V_MPEG4/ISO/AVC
Duration : 1h 39mn
Bit rate : 5 028 Kbps
Width : 1 912 pixels
Height : 1 032 pixels
Display aspect ratio : 1.85:1
Frame rate mode : Constant
Frame rate : 23.976 fps
Color space : YUV
Chroma subsampling : 4:2:0
Bit depth : 8 bits
Scan type : Progressive
Bits/(Pixel*Frame) : 0.106
Stream size : 3.50 GiB (91%)
Language : English
Default : Yes
Forced : No
Color primaries : BT.709
Transfer characteristics : BT.709
Matrix coefficients : BT.709
Audio
ID : 2
Format : AC-3
Format/Info : Audio Coding 3
Mode extension : CM (complete main)
Format settings, Endianness : Big
Codec ID : A_AC3
Duration : 1h 39mn
Bit rate mode : Constant
Bit rate : 384 Kbps
Channel count : 6 channels
Channel positions : Front: L C R, Side: L R, LFE
Sampling rate : 48.0 KHz
Bit depth : 16 bits
Compression mode : Lossy
Stream size : 273 MiB (7%)
Language : Russian
Default : Yes
Forced : No
Menu
00:00:00.000 : en:1
00:03:20.000 : en:2
00:12:00.000 : en:3
00:21:49.000 : en:4
00:34:03.000 : en:5
00:44:50.000 : en:6
00:54:50.000 : en:7
00:59:15.000 : en:8
01:12:38.000 : en:9
01:21:43.000 : en:10
01:37:02.000 : en:11

Скриншоты




Display posts:    

Current time is: 22-Oct 00:47

All times are UTC ± 0


You cannot post new topics in this forum
You cannot reply to topics in this forum
You cannot edit your posts in this forum
You cannot delete your posts in this forum
You cannot vote in polls in this forum
You cannot attach files in this forum
You cannot download files in this forum

!ATTENTION!
The site does not give electronic versions of products, and is engaged only in a collecting and cataloguing of the references sent and published at a forum by our readers. If you are the legal owner of any submitted material and do not wish that the reference to it was in our catalogue, contact us and we shall immediately remove her. Files for an exchange on tracker are given by users of a site, and the administration does not bear the responsibility for their maintenance. The request to not fill in the files protected by copyrights, and also files of the illegal maintenance!