Ивановский Торрент трекер
Яндекс.Погода
 

[Quote]
HUNTER

Голые перцы / Search Party
Страна: США
Студия: Gold Circle Films
Жанр: комедия, приключения
Год выпуска: 2014
Продолжительность: 01:29:26
Перевод: Профессиональный (дублированный)
Субтитры: нет
Оригинальная аудиодорожка: нет
Режиссер: Скот Армстронг / Scot Armstrong
В ролях: ТиДжей Миллер, Адам Палли, Томас Миддлдитч, Элисон Бри, Шеннон Мари Вудворд, Кристен Риттер, Дж.Б. Смув, Октавио Гомез, Морис Комт, Лэнс Реддик
Описание: Для чего нужен мальчишник? Чтобы отметить последний день свободной жизни? Разделить сомнения с приятелем, который потом на церемонии вякнет, что он против этой свадьбы? Чтобы твоя оскорбленная невеста уехала одна в оплаченное свадебное путешествие в Мексику? Чтобы ты гнался за ней голый по прериям в грузовике с кокаином, отбиваясь от драгбаронов и койотов? …
Меню: есть, статичное, озвученное
Сэмпл
Тип релиза: DVD5
Контейнер: DVD-Video
Видео: PAL 16:9 (720x576(0.534)) MPEG Video, 25,000 кадр/сек, 5535 Кбит/сек
Аудио: Russian (Dolby AC-3, 6 ch) 448 Кбит/сек, 48.0 КГц

DVDInfo

Title: SEARCH_PARTY
Disk size: 4.26 Gb ( 4 466 918,00 KBytes )
DVD Type: DVD-5
Enabled regions: 1,2,3,4,5,6,7,8
VTS_01:
Title Play Length: 00:00:30
Video: PAL 16:9 (720x576) VBR
Auto Pan&Scan, Auto Letterboxed
Audio (3):
Russian (Dolby AC3, 2 ch)
English (Dolby AC3, 6 ch)
English (Dolby AC3, 6 ch)
Subtitles (0)
VTS_02:
Title Play Length: 01:29:25
Video: PAL 16:9 (720x576) VBR
Auto Pan&Scan, Auto Letterboxed
Audio (1):
Russian (Dolby AC3, 6 ch)
Subtitles (0)
* Menus Information *
VIDEO_TS Menu
Video:
PAL 16:9 (720x576) VBR
Auto Pan&Scan, Auto Letterboxed
Audio (0)
English Language Unit :
Title Menu
VTS_01 Menu
Video:
PAL 16:9 (720x576) VBR
Auto Letterboxed
Audio (1):
Not specified (Dolby AC3, 2 ch)
English Language Unit :
Root Menu
Chapter (PTT) Menu
VTS_02 Menu
Video:
PAL 4:3 (720x576) VBR
Audio (0)
English Language Unit :
Root Menu
Chapter (PTT) Menu

MediaInfo

Общее
Полное имя : SEARCH_PARTY\VIDEO_TS\VTS_02_1.VOB
Формат : MPEG-PS
Размер файла : 1024 Мбайт
Продолжительность : 23 м. 27 с.
Режим общего битрейта : Переменный
Общий поток : 6104 Кбит/сек
Видео
Идентификатор : 224 (0xE0)
Формат : MPEG Video
Версия формата : Version 2
Профиль формата : [email protected]
Настройки формата : CustomMatrix / BVOP
Параметр BVOP формата : Да
Параметр матрицы формата : Выборочная
Параметр GOP формата : M=3, N=12
Продолжительность : 23 м. 27 с.
Вид битрейта : Переменный
Битрейт : 5535 Кбит/сек
Максимальный битрейт : 8000 Кбит/сек
Ширина : 720 пикселей
Высота : 576 пикселей
Соотношение сторон : 16:9
Частота кадров : 25,000 кадров/сек
Стандарт вещания : PAL
Цветовое пространство : YUV
Субдискретизация насыщенности : 4:2:0
Битовая глубина : 8 бит
Тип развёртки : Прогрессивная
Метод сжатия : С потерями
Бит/(Пиксели*Кадры) : 0.534
Временной код первого кадра : 00:00:00:00
Оригинал временного кода : Group of pictures header
GOP, открыто/закрыто : Открыто
GOP, открыто/закрыто на первом кадре : Закрыто
Размер потока : 928 Мбайт (91%)
Аудио
Идентификатор : 189 (0xBD)-128 (0x80)
Формат : AC-3
Формат/Информация : Audio Coding 3
Режим смешивания : DVD-Video
Продолжительность : 23 м. 26 с.
Вид битрейта : Постоянный
Битрейт : 448 Кбит/сек
Каналы : 6 каналов
Расположение каналов : Front: L C R, Side: L R, LFE
Частота : 48,0 КГц
Частота кадров : 31,250 кадров/сек (1536 SPF)
Битовая глубина : 16 бит
Метод сжатия : С потерями
Размер потока : 75,1 Мбайт (7%)
ServiceKind/String : Complete Main

Скриншоты меню

Скриншоты



Display posts:    

Current time is: 23-Oct 00:35

All times are UTC ± 0


You cannot post new topics in this forum
You cannot reply to topics in this forum
You cannot edit your posts in this forum
You cannot delete your posts in this forum
You cannot vote in polls in this forum
You cannot attach files in this forum
You cannot download files in this forum

!ATTENTION!
The site does not give electronic versions of products, and is engaged only in a collecting and cataloguing of the references sent and published at a forum by our readers. If you are the legal owner of any submitted material and do not wish that the reference to it was in our catalogue, contact us and we shall immediately remove her. Files for an exchange on tracker are given by users of a site, and the administration does not bear the responsibility for their maintenance. The request to not fill in the files protected by copyrights, and also files of the illegal maintenance!