Форсаж: Шпионские гонки / Fast & Furious Spy Racers / Сезон: 6 / Серии: 12 из 12 (Мика Гуннелл / Micah Gunnell, Джеймс Янг / James Yang, Лео Райли / Leo Riley) [2021, США, мультфильм, боевик, криминал, семейный, WEB-DL 1080p] Dub + Original Eng + :: Российский Торрент трекер
Российский Торрент трекер
Яндекс.Погода
 

[Quote]
HUNTER

Форсаж: Шпионские гонки / Fast & Furious Spy Racers
Страна: США
Жанр: мультфильм, боевик, криминал, семейный
Продолжительность серии: 00:23:00
Год выпуска: 2021
Перевод: Профессиональный (дублированный)
Русские субтитры: есть
Режиссёр: Мика Гуннелл / Micah Gunnell, Джеймс Янг / James Yang, Лео Райли / Leo Riley
Роли озвучивали: Тайлер Пози, Чихай Чунг, Хорхе Диас, Люк Янблад, Камилль Рэмси, Рене Голдсберри, Тру Валентино, Эйвери Брансон, Авриэль Корти, Маниш Дайал
Описание: Молодого Тони Торетто, двоюродного брата Доминика, вербует правительственное агентство. Вместе со своими друзьями Тони должен стать членом элитной гоночной лиги, ведь скоростное развлечение — лишь прикрытие для могущественной преступной организации, планирующей захватить мир.
Список серий:
1.День Полыхания / Incineration Day
2.Занесенные снегом / Snowed In
3.Раф-мездие Рафаэлы / Rafaela's Raf-venge
4.Фан и автобан / Fun on the Autobahn
5.Уничтожение / Detonation
6.Катастрофа / Meltdown
7.Голливуд: начало / Hollywood Beginning
8.Охота и ЭНСАД / Dann Hunt
9.Дикая штучка / Wildcat
10.Нефть и вода / Oil and Water
11.До свидания, Голливуд. 1 часть / Say Goodbye to Hollywood, Part 1
12.До свидания, Голливуд. 2 часть / Say Goodbye to Hollywood, Part 2
Доп. информация:
Официальный сайт
Netflix
Kinopoisk
Imdb
Информация по сериям
Ссылка на предыдущие и альтернативные раздачи:
Форсаж: Шпионские гонки
Качество: WEB-DL 1080p
Формат: MKV
Видео: MPEG-4 AVC, 1920x1080, 23,976 fps, ~4 020 kb/s
Аудио: E-AC-3, 48.0 kHz, 6 channels, 640 kb/s [Русский]
Аудио 2: E-AC-3, 48.0 kHz, 6 channels, 640 kb/s [Английский]
Субтитры: русские (forced), русские, английские

Подробные технические данные

Общее
Уникальный идентификатор : 88968266848956747936572579067407133748 (0x42EEAA385BCD44A0669878B9AD206C34)
Полное имя : D:\Films\Форсаж Шпионские гонки 6 сезон\Fast Furious Spy Racers S06E01 Incineration Day WEBDL1080p.mkv
Формат : Matroska
Версия формата : Version 4
Размер файла : 756 Мбайт
Продолжительность : 23 м. 53 с.
Режим общего битрейта : Переменный
Общий поток : 4 425 Кбит/сек
Дата кодирования : UTC 2022-01-10 08:42:56
Программа кодирования : mkvmerge v64.0.0 ('Willows') 64-bit
Библиотека кодирования : libebml v1.4.2 + libmatroska v1.6.4
Видео
Идентификатор : 1
Формат : AVC
Формат/Информация : Advanced Video Codec
Профиль формата : [email protected]
Настройки формата : CABAC / 3 Ref Frames
Параметр CABAC формата : Да
Параметр RefFrames формата : 3 кадра
Идентификатор кодека : V_MPEG4/ISO/AVC
Продолжительность : 23 м. 52 с.
Вид битрейта : Переменный
Битрейт : 3 143 Кбит/сек
Номинальный битрейт : 4 020 Кбит/сек
Максимальный битрейт : 6 030 Кбит/сек
Ширина : 1 920 пикселей
Высота : 1 080 пикселей
Соотношение сторон : 16:9
Режим частоты кадров : Постоянный
Частота кадров : 23,976 (24000/1001) кадра/сек
Цветовое пространство : YUV
Субдискретизация насыщенности : 4:2:0
Битовая глубина : 8 бит
Тип развёртки : Прогрессивная
Бит/(Пиксели*Кадры) : 0.063
Размер потока : 537 Мбайт (71%)
Библиотека кодирования : x264 core 148 r2727 7d026e8
Настройки программы : cabac=1 / ref=3 / deblock=1:0:0 / analyse=0x1:0x111 / me=umh / subme=10 / psy=1 / psy_rd=1.00:0.00 / mixed_ref=1 / me_range=24 / chroma_me=1 / trellis=2 / 8x8dct=0 / cqm=0 / deadzone=21,11 / fast_pskip=1 / chroma_qp_offset=-2 / threads=8 / lookahead_threads=1 / sliced_threads=0 / nr=0 / decimate=1 / interlaced=0 / bluray_compat=0 / stitchable=1 / constrained_intra=0 / bframes=2 / b_pyramid=0 / b_adapt=2 / b_bias=0 / direct=3 / weightb=1 / open_gop=0 / weightp=2 / keyint=250 / keyint_min=23 / scenecut=0 / intra_refresh=0 / rc_lookahead=48 / rc=2pass / mbtree=1 / bitrate=4020 / ratetol=1.0 / qcomp=0.50 / qpmin=6 / qpmax=51 / qpstep=4 / cplxblur=20.0 / qblur=0.5 / vbv_maxrate=6030 / vbv_bufsize=8040 / nal_hrd=vbr / filler=0 / ip_ratio=1.40 / aq=1:1.00
Default : Да
Forced : Нет
Аудио #1
Идентификатор : 2
Формат : E-AC-3
Формат/Информация : Enhanced AC-3
Коммерческое название : Dolby Digital Plus
Идентификатор кодека : A_EAC3
Продолжительность : 23 м. 53 с.
Вид битрейта : Постоянный
Битрейт : 640 Кбит/сек
Каналы : 6 каналов
Channel layout : L R C LFE Ls Rs
Частота : 48,0 КГц
Частота кадров : 31,250 кадров/сек (1536 SPF)
Битовая глубина : 32 бит
Метод сжатия : С потерями
Размер потока : 109 Мбайт (14%)
Заголовок : Русский
Язык : Russian
Service kind : Complete Main
Default : Да
Forced : Нет
Аудио #2
Идентификатор : 3
Формат : E-AC-3
Формат/Информация : Enhanced AC-3
Коммерческое название : Dolby Digital Plus
Идентификатор кодека : A_EAC3
Продолжительность : 23 м. 53 с.
Вид битрейта : Постоянный
Битрейт : 640 Кбит/сек
Каналы : 6 каналов
Channel layout : L R C LFE Ls Rs
Частота : 48,0 КГц
Частота кадров : 31,250 кадров/сек (1536 SPF)
Битовая глубина : 32 бит
Метод сжатия : С потерями
Размер потока : 109 Мбайт (14%)
Заголовок : English
Язык : English
Service kind : Complete Main
Default : Нет
Forced : Нет
Текст #1
Идентификатор : 4
Формат : ASS
Идентификатор кодека : S_TEXT/ASS
Идентификатор кодека/Информация : Advanced Sub Station Alpha
Продолжительность : 22 м. 32 с.
Битрейт : 2 бит/сек
Count of elements : 7
Метод сжатия : Без потерь
Размер потока : 394 байт (0%)
Заголовок : Русский (Forced Narrative)
Язык : Russian
Default : Да
Forced : Нет
Текст #2
Идентификатор : 5
Формат : ASS
Идентификатор кодека : S_TEXT/ASS
Идентификатор кодека/Информация : Advanced Sub Station Alpha
Продолжительность : 22 м. 32 с.
Битрейт : 136 бит/сек
Count of elements : 317
Метод сжатия : Без потерь
Размер потока : 22,5 Кбайт (0%)
Заголовок : Русский
Язык : Russian
Default : Нет
Forced : Нет
Текст #3
Идентификатор : 6
Формат : ASS
Идентификатор кодека : S_TEXT/ASS
Идентификатор кодека/Информация : Advanced Sub Station Alpha
Продолжительность : 22 м. 33 с.
Битрейт : 146 бит/сек
Count of elements : 447
Метод сжатия : Без потерь
Размер потока : 24,2 Кбайт (0%)
Заголовок : English
Язык : English
Default : Нет
Forced : Нет

Скриншоты

Спасибо Edik1d1 за предоставленный видеоматериал


Display posts:    

Current time is: 29-Jan 07:31

All times are UTC ± 0


You cannot post new topics in this forum
You cannot reply to topics in this forum
You cannot edit your posts in this forum
You cannot delete your posts in this forum
You cannot vote in polls in this forum
You cannot attach files in this forum
You cannot download files in this forum

!ATTENTION!
The site does not give electronic versions of products, and is engaged only in a collecting and cataloguing of the references sent and published at a forum by our readers. If you are the legal owner of any submitted material and do not wish that the reference to it was in our catalogue, contact us and we shall immediately remove her. Files for an exchange on tracker are given by users of a site, and the administration does not bear the responsibility for their maintenance. The request to not fill in the files protected by copyrights, and also files of the illegal maintenance!