Ивановский Торрент трекер
Яндекс.Погода
 

[Quote]
HUNTER

-Форма воды / The Shape of Water-«Based on an idea by Daniel Kraus And Guillermo del Toro»
-Страна: США
Студия: Bull Productions, Double Dare You (DDY), Fox Searchlight Pictures
Жанр: фэнтези, драма
Год выпуска: 2017
Продолжительность: 02:03:19
Перевод: Профессиональный (дублированный) «Лицензия»
Субтитры: Русские (форсированные, полные, SDN), Украинские (форсированные, полные), Английские (форсированные, полные, SDN)
Оригинальная аудиодорожка: английский-Режиссер: Гильермо дель Торо / Guillermo del Toro-В ролях: Салли Хокинс (Elisa Esposito), Майкл Шеннон (Richard Strickland), Ричард Дженкинс (Giles), Октавия Спенсер (Zelda Fuller), Майкл Стулбарг (Dr. Robert Hoffstetler), Даг Джонс (Amphibian Man), Дэвид Хьюлетт (Fleming), Ник Сирси (General Hoyt), Стюарт Арнотт (Bernard), Найджел Беннетт (Mihalkov), Лорен Ли Смит (Elaine Strickland), Мартин Роуч (Brewster Fuller)
Описание: Действие разворачивается в 1963 году. Главная героиня - немая уборщица в научной лаборатории. В стенах секретного учреждения идёт работа по изучению отловленного человека-амфибии. Женщина влюбляется в мутанта и помогает ему бежать...-| Сэмпл | IMDB | КиноПоиск |
-Тип релиза: BDRip 1080p |TayTO|
Контейнер: MKV
Видео: 1920x1038 (1.85:1) at 23.976, [email protected] ~ 13300 kbps avg, 0.279 bit/pixel
Аудио: 48 kHz/24-bit, DTS, 3/2 (L,C,R,l,r) + LFE ch, ~ 768.00 kbps avg | Russian «Pifagor»
Аудио 2: 48 kHz/16-bit, AC3 Dolby Digital, 3/2 (L,C,R,l,r) + LFE ch, ~ 448 kbps avg | Ukrainian «студія LeDoyen»
Аудио 3: 48 kHz/24-bit, DTS, 3/2 (L,C,R,l,r) + LFE ch, ~ 1509.00 kbps avg | English «Original»
Формат субтитров: softsub (SRT)

MediaInfo

Общее
Уникальный идентификатор : 206602473732119506858212303676065080780 (0x9B6E306730016C64A79DAB1C10C665CC)
Полное имя : D:\torrents\Форма воды\The.Shape.of.Water.2017.BluRay.1080p.-BLUEBIRD.mkv
Формат : Matroska
Версия формата : Version 4 / Version 2
Размер файла : 14,5 Гбайт
Продолжительность : 2 ч. 3 м.
Общий поток : 16,9 Мбит/сек
Название фильма : Форма воды / The Shape of Water (2017) BDRip 1080p -BLUEBIRD
Дата кодирования : UTC 2018-05-18 21:33:45
Программа кодирования : mkvmerge v20.0.0 ('I Am The Sun') 64-bit
Библиотека кодирования : libebml v1.3.5 + libmatroska v1.4.8
Обложка : Yes
Attachments : Cover.png
Видео
Идентификатор : 1
Формат : AVC
Формат/Информация : Advanced Video Codec
Профиль формата : [email protected]
Параметр CABAC формата : Да
Параметр ReFrames формата : 4 кадра
Идентификатор кодека : V_MPEG4/ISO/AVC
Продолжительность : 2 ч. 3 м.
Битрейт : 13,6 Мбит/сек
Ширина : 1920 пикселей
Высота : 1038 пикселей
Соотношение сторон : 1,85:1
Режим частоты кадров : Постоянный
Частота кадров : 23,976 (24000/1001) кадра/сек
Цветовое пространство : YUV
Субдискретизация насыщенности : 4:2:0
Битовая глубина : 8 бит
Тип развёртки : Прогрессивная
Бит/(Пиксели*Кадры) : 0.285
Размер потока : 11,7 Гбайт (81%)
Заголовок : Encode TayTO
Библиотека кодирования : x264 core 155 r2867+74 66b5600 t_mod_Custom_2 [[email protected] X86_64]
Настройки программы : cabac=1 / ref=4 / deblock=1:-3:-3 / analyse=0x3:0x113 / me=umh / subme=11 / psy=1 / fade_compensate=0.00 / psy_rd=1.00:0.00 / mixed_ref=1 / me_range=32 / chroma_me=1 / trellis=2 / 8x8dct=1 / cqm=0 / deadzone=21,11 / fast_pskip=0 / chroma_qp_offset=-2 / threads=12 / lookahead_threads=2 / sliced_threads=0 / nr=0 / decimate=0 / interlaced=0 / bluray_compat=0 / constrained_intra=0 / fgo=0 / bframes=8 / b_pyramid=2 / b_adapt=2 / b_bias=0 / direct=3 / weightb=1 / open_gop=0 / weightp=2 / keyint=250 / keyint_min=23 / scenecut=40 / intra_refresh=0 / rc_lookahead=60 / rc=crf / mbtree=0 / crf=15.9000 / qcomp=0.60 / qpmin=0:0:0 / qpmax=69:69:69 / qpstep=4 / vbv_maxrate=62500 / vbv_bufsize=78125 / crf_max=0.0 / nal_hrd=none / filler=0 / ip_ratio=1.30 / pb_ratio=1.20 / aq=3:0.80 / aq-sensitivity=10.00 / aq-factor=1.00:1.00:1.00 / aq2=0 / aq3=0 / zones=0,577,crf=14.9/840,4293,crf=15.3/4638,4870,crf=15.3/6037,6090,crf=14.9/10530,10722,crf=14.9/30839,31391,crf=15.3/32958,34179,crf=16.1/69636,70801,crf=16.1/76723,78806,crf=16.1/101287,101919,crf=16.1/170497,177408,crf=20.9
Язык : English
Default : Да
Forced : Нет
Цветовой диапазон : Limited
Основные цвета : BT.709
Характеристики трансфера : BT.709
Коэффициенты матрицы : BT.709
Аудио #1
Идентификатор : 2
Формат : DTS
Формат/Информация : Digital Theater Systems
Режим : 16
Параметр Endianness формата : Big
Идентификатор кодека : A_DTS
Продолжительность : 2 ч. 3 м.
Вид битрейта : Постоянный
Битрейт : 1509 Кбит/сек
Каналы : 6 каналов
Расположение каналов : Front: L C R, Side: L R, LFE
Частота : 48,0 КГц
Частота кадров : 93,750 кадра/сек (512 spf)
Битовая глубина : 24 бит
Метод сжатия : С потерями
Размер потока : 1,30 Гбайт (9%)
Заголовок : Лицензия «Pifagor»
Язык : Russian
Default : Да
Forced : Нет
Аудио #2
Идентификатор : 3
Формат : AC-3
Формат/Информация : Audio Coding 3
Параметр Endianness формата : Big
Идентификатор кодека : A_AC3
Продолжительность : 2 ч. 3 м.
Вид битрейта : Постоянный
Битрейт : 224 Кбит/сек
Каналы : 2 канала
Расположение каналов : Front: L R
Частота : 48,0 КГц
Частота кадров : 31,250 кадров/сек (1536 spf)
Битовая глубина : 16 бит
Метод сжатия : С потерями
Размер потока : 198 Мбайт (1%)
Заголовок : iTunes «LeDoyen»
Язык : Ukrainian
ServiceKind/String : Complete Main
Default : Нет
Forced : Нет
Аудио #3
Идентификатор : 4
Формат : DTS
Формат/Информация : Digital Theater Systems
Режим : 16
Параметр Endianness формата : Big
Идентификатор кодека : A_DTS
Продолжительность : 2 ч. 3 м.
Вид битрейта : Постоянный
Битрейт : 1509 Кбит/сек
Каналы : 6 каналов
Расположение каналов : Front: L C R, Side: L R, LFE
Частота : 48,0 КГц
Частота кадров : 93,750 кадра/сек (512 spf)
Битовая глубина : 24 бит
Метод сжатия : С потерями
Размер потока : 1,30 Гбайт (9%)
Заголовок : Original
Язык : English
Default : Нет
Forced : Нет
Текст #1
Идентификатор : 5
Формат : UTF-8
Идентификатор кодека : S_TEXT/UTF8
Идентификатор кодека/Информация : UTF-8 Plain Text
Продолжительность : 1 ч. 58 м.
Битрейт : 1 бит/сек
ElementCount : 61
Размер потока : 1,38 Кбайт (0%)
Заголовок : Fofced
Язык : Russian
Default : Да
Forced : Нет
Текст #2
Идентификатор : 6
Формат : UTF-8
Идентификатор кодека : S_TEXT/UTF8
Идентификатор кодека/Информация : UTF-8 Plain Text
Продолжительность : 2 ч. 1 м.
Битрейт : 69 бит/сек
ElementCount : 1264
Размер потока : 61,8 Кбайт (0%)
Заголовок : Full
Язык : Russian
Default : Нет
Forced : Нет
Текст #3
Идентификатор : 7
Формат : UTF-8
Идентификатор кодека : S_TEXT/UTF8
Идентификатор кодека/Информация : UTF-8 Plain Text
Продолжительность : 1 ч. 56 м.
Битрейт : 67 бит/сек
ElementCount : 1012
Размер потока : 57,8 Кбайт (0%)
Заголовок : SDN
Язык : Russian
Default : Нет
Forced : Нет
Текст #4
Идентификатор : 8
Формат : UTF-8
Идентификатор кодека : S_TEXT/UTF8
Идентификатор кодека/Информация : UTF-8 Plain Text
Продолжительность : 1 ч. 47 м.
Битрейт : 5 бит/сек
ElementCount : 167
Размер потока : 4,49 Кбайт (0%)
Заголовок : Forced
Язык : Ukrainian
Default : Нет
Forced : Нет
Текст #5
Идентификатор : 9
Формат : UTF-8
Идентификатор кодека : S_TEXT/UTF8
Идентификатор кодека/Информация : UTF-8 Plain Text
Продолжительность : 2 ч. 1 м.
Битрейт : 71 бит/сек
ElementCount : 1398
Размер потока : 64,1 Кбайт (0%)
Заголовок : Full
Язык : Ukrainian
Default : Нет
Forced : Нет
Текст #6
Идентификатор : 10
Формат : UTF-8
Идентификатор кодека : S_TEXT/UTF8
Идентификатор кодека/Информация : UTF-8 Plain Text
Продолжительность : 1 ч. 47 м.
Битрейт : 3 бит/сек
ElementCount : 169
Размер потока : 2,51 Кбайт (0%)
Заголовок : Forced
Язык : English
Default : Нет
Forced : Нет
Текст #7
Идентификатор : 11
Формат : UTF-8
Идентификатор кодека : S_TEXT/UTF8
Идентификатор кодека/Информация : UTF-8 Plain Text
Продолжительность : 2 ч. 1 м.
Битрейт : 48 бит/сек
ElementCount : 1555
Размер потока : 43,0 Кбайт (0%)
Заголовок : Full
Язык : English
Default : Нет
Forced : Нет
Текст #8
Идентификатор : 12
Формат : UTF-8
Идентификатор кодека : S_TEXT/UTF8
Идентификатор кодека/Информация : UTF-8 Plain Text
Продолжительность : 2 ч. 2 м.
Битрейт : 56 бит/сек
ElementCount : 1928
Размер потока : 51,3 Кбайт (0%)
Заголовок : SDH
Язык : English
Default : Нет
Forced : Нет
Меню
00:00:00.000 : en:Chapter 01
00:06:24.467 : en:Chapter 02
00:12:54.774 : en:Chapter 03
00:18:32.986 : en:Chapter 04
00:23:45.590 : en:Chapter 05
00:29:39.652 : en:Chapter 06
00:35:29.836 : en:Chapter 07
00:39:30.534 : en:Chapter 08
00:42:42.434 : en:Chapter 09
00:48:34.036 : en:Chapter 10
00:52:26.935 : en:Chapter 11
00:57:30.196 : en:Chapter 12
01:01:52.542 : en:Chapter 13
01:07:35.551 : en:Chapter 14
01:12:13.495 : en:Chapter 15
01:17:50.791 : en:Chapter 16
01:21:17.122 : en:Chapter 17
01:26:05.910 : en:Chapter 18
01:32:48.479 : en:Chapter 19
01:37:18.749 : en:Chapter 20
01:43:24.114 : en:Chapter 21
01:46:06.610 : en:Chapter 22
01:50:31.666 : en:Chapter 23
01:58:34.857 : en:Chapter 24

Скриншоты


Торрент обновлен 19.05.18
(Замена звука iTunes c «BD EUR»)


Display posts:    

Current time is: 23-Oct 16:51

All times are UTC ± 0


You cannot post new topics in this forum
You cannot reply to topics in this forum
You cannot edit your posts in this forum
You cannot delete your posts in this forum
You cannot vote in polls in this forum
You cannot attach files in this forum
You cannot download files in this forum

!ATTENTION!
The site does not give electronic versions of products, and is engaged only in a collecting and cataloguing of the references sent and published at a forum by our readers. If you are the legal owner of any submitted material and do not wish that the reference to it was in our catalogue, contact us and we shall immediately remove her. Files for an exchange on tracker are given by users of a site, and the administration does not bear the responsibility for their maintenance. The request to not fill in the files protected by copyrights, and also files of the illegal maintenance!