Ивановский Торрент трекер
Яндекс.Погода
 

[Quote]
HUNTER

Фиксики: Большой секрет
Страна: Россия
Жанр: мультфильм, приключения, комедия, музыка
Продолжительность: 01:17:57
Год выпуска: 2017
Русские субтитры: нет
Режиссёр: Васико Бедошвили, Андрей Колпин, Иван Пшонкин
Роли озвучивали: Дмитрий Назаров
Александр Пушной
Лариса Брохман
Диомид Виноградов
Дарья Колбасеева
Феликс Головнин
Яков Васильев
Инна Королёва
Пётр Иващенко
Варвара Обидор
Описание: Фиксики — маленькие добрые человечки, которые живут в машинах и приборах и заботятся о технике. Но люди не должны знать о фиксиках! Это БОЛЬШОЙ СЕКРЕТ! Фиксики находят способ перемещаться по электрическим проводам. Теперь они смогут мгновенно починить любой прибор, где бы он ни был! И тут недоработанное изобретение попадает к озорнику Файеру. В руках маленького фиксика оно становится причиной больших проблем. Искры, взрывы, разрушения, взбесившаяся техника — город на грани катастрофы! Фиксикам почти чудом удаётся её предотвратить. Но как сохранить их БОЛЬШОЙ СЕКРЕТ?!
Доп. информация: https://www.kinopoisk.ru/film/fiksiki-bolshoy-sekret-2017-905038/
Семпл: http://sendfile.su/1394658
Качество: WEB-DLRip
Формат: AVI
Видео: 720x384 (1.88:1), 24 fps, XviD build 50 ~1117 kbps avg, 0.17 bit/pixel найдено в сети
Аудио: 48 kHz, MPEG Layer 3, 2 ch, ~192.00 kbps avg спасибо порошков за исходник для звуковой дорожки
Субтитры: отсутствуют

Подробные технические данные

General
Complete name : D:\Fiksiki_Bolshoj_Sekret_2017_WEB-DLRip_Original_Rus.avi
Format : AVI
Format/Info : Audio Video Interleave
File size : 736 MiB
Duration : 1h 17mn
Overall bit rate : 1 319 Kbps
Video
ID : 0
Format : MPEG-4 Visual
Format profile : Advanced [email protected]
Format settings, BVOP : 2
Format settings, QPel : No
Format settings, GMC : No warppoints
Format settings, Matrix : Default (MPEG)
Codec ID : XVID
Codec ID/Hint : XviD
Duration : 1h 17mn
Bit rate : 1 118 Kbps
Width : 720 pixels
Height : 384 pixels
Display aspect ratio : 1.85:1
Frame rate : 24.000 fps
Color space : YUV
Chroma subsampling : 4:2:0
Bit depth : 8 bits
Scan type : Progressive
Compression mode : Lossy
Bits/(Pixel*Frame) : 0.168
Stream size : 623 MiB (85%)
Writing library : XviD 1.2.1 (UTC 2008-12-04)
Audio
ID : 1
Format : MPEG Audio
Format version : Version 1
Format profile : Layer 3
Mode : Joint stereo
Mode extension : MS Stereo
Codec ID : 55
Codec ID/Hint : MP3
Duration : 1h 17mn
Bit rate mode : Constant
Bit rate : 192 Kbps
Channel count : 2 channels
Sampling rate : 48.0 KHz
Compression mode : Lossy
Stream size : 107 MiB (15%)
Alignment : Aligned on interleaves
Interleave, duration : 42 ms (1.00 video frame)
Interleave, preload duration : 504 ms
Writing library : LAMELAME_MAJOR_VERSI


Display posts:    

Current time is: 16-Oct 12:31

All times are UTC ± 0


You cannot post new topics in this forum
You cannot reply to topics in this forum
You cannot edit your posts in this forum
You cannot delete your posts in this forum
You cannot vote in polls in this forum
You cannot attach files in this forum
You cannot download files in this forum

!ATTENTION!
The site does not give electronic versions of products, and is engaged only in a collecting and cataloguing of the references sent and published at a forum by our readers. If you are the legal owner of any submitted material and do not wish that the reference to it was in our catalogue, contact us and we shall immediately remove her. Files for an exchange on tracker are given by users of a site, and the administration does not bear the responsibility for their maintenance. The request to not fill in the files protected by copyrights, and also files of the illegal maintenance!