Российский Торрент трекер
Яндекс.Погода
 

[Quote]
HUNTER

Фантазия / Fantasia
Страна: США
Студия: Walt Disney Productions, Walt Disney Animation Studios
Жанр: музыкальный, мультфильм, полнометражный, фэнтези, семейный
Год выпуска: 1940
Продолжительность: 02:04:27
Перевод: Профессиональный (многоголосый закадровый) ("Невафильм" по заказу Первого канала, 2003 год)
Субтитры: нет
Оригинальная аудиодорожка: нет
Режиссер: Джеймс Элгар / James Algar, Сэмюэл Армстронг / Samuel Armstrong, Норман Фергюсон / Norman Ferguson
В ролях: Леопольд Стоковски, Димс Тейлор, Кори Бёртон, Уолт Дисней, Джеймс МакДональд, Джульетта Новис, Пол Дж. Смит
Описание: Необычайный, поражающий воображение мультконцерт, небывалое ранее единение музыки и мультипликации. Дисней и знаменитый дирижер Леопольд Стоковски решили воспроизвести на экране фантазии, возникающие в сознании людей при прослушивании музыкальных шедевров. Картина состоит из 8 классических композиций, проиллюстрированных сюжетными инсценировками и ритмичными абстракциями, предвосхищающими чудеса компьютерной графики.
Дополнительная информация:
Автор релиза -
Исходник для рипа - Blu-Ray (USA) - Fantasia 2000 USA Special Edition 2 Movie Collection 1080p Blu-ray AVC DTS-HD MA - BluDragon
За исходник русской дорожки спасибо vitaly3 & mrogg
Наложение озвучки сделано только на центральный канал
Роли озвучивали:
Рассказчик - Валерий Кухарешин
Диктор - Александр Ноткин
Микки Маус - Максим Сергеев
Леопольд Стоковски - Виктор Костецкий
Рекламы нет!




Качество видео: BDRip
Формат видео: AVI
Видео: XviD, 640x480 (4:3), 1219 kbps, 23,976 fps, 0.165 bit/pixel
Аудио: Русский AC3, 48000 Гц, 6ch, 448 kbps

MediaInfo

Общее
Полное имя : Fantasia.1940.BDRip-ylnian.avi
Формат : AVI
Формат/Информация : Audio Video Interleave
Размер файла : 1,46 Гбайт
Продолжительность : 2 ч. 4 м.
Общий поток : 1 676 Кбит/сек
Программа кодирования : VirtualDubMod 1.5.10.3 | www.virtualdub-fr.org || (build 2550/release)
Библиотека кодирования : VirtualDubMod build 2550/release
Видео
Идентификатор : 0
Формат : MPEG-4 Visual
Профиль формата : Advanced [email protected]
Настройки формата : BVOP1 / Custom Matrix
Параметр BVOP формата : 1
Параметр QPel формата : Нет
Параметр GMC формата : Без точки перехода
Параметр матрицы формата : Выборочная
Идентификатор кодека : XVID
Идентификатор кодека/Подсказка : XviD
Продолжительность : 2 ч. 4 м.
Битрейт : 1 219 Кбит/сек
Ширина : 640 пикселей
Высота : 480 пикселей
Соотношение сторон : 4:3
Частота кадров : 23,976 (24000/1001) кадра/сек
Цветовое пространство : YUV
Субдискретизация насыщенности : 4:2:0
Битовая глубина : 8 бит
Тип развёртки : Прогрессивная
Метод сжатия : С потерями
Бит/(Пиксели*Кадры) : 0.165
Размер потока : 1,06 Гбайт (73%)
Библиотека кодирования : XviD 67
Аудио
Идентификатор : 1
Формат : AC-3
Формат/Информация : Audio Coding 3
Коммерческое название : Dolby Digital
Идентификатор кодека : 2000
Продолжительность : 2 ч. 4 м.
Вид битрейта : Постоянный
Битрейт : 448 Кбит/сек
Каналы : 6 каналов
Channel layout : L R C LFE Ls Rs
Частота : 48,0 КГц
Частота кадров : 31,250 кадров/сек (1536 SPF)
Метод сжатия : С потерями
Размер потока : 399 Мбайт (27%)
Выравнивание : Разделение по промежуткам
Продолжительность промежутка : 42 мс. (1,00 видеокадр)
Время предзагрузки промежутка : 500 мс.
Service kind : Complete Main

Награды

8 wins & 1 nominations - https://www.imdb.com/title/tt0032455/awards/

Скриншоты



Display posts:    

Current time is: 08-Dec 10:46

All times are UTC ± 0


You cannot post new topics in this forum
You cannot reply to topics in this forum
You cannot edit your posts in this forum
You cannot delete your posts in this forum
You cannot vote in polls in this forum
You cannot attach files in this forum
You cannot download files in this forum

!ATTENTION!
The site does not give electronic versions of products, and is engaged only in a collecting and cataloguing of the references sent and published at a forum by our readers. If you are the legal owner of any submitted material and do not wish that the reference to it was in our catalogue, contact us and we shall immediately remove her. Files for an exchange on tracker are given by users of a site, and the administration does not bear the responsibility for their maintenance. The request to not fill in the files protected by copyrights, and also files of the illegal maintenance!