Ивановский Торрент трекер
Яндекс.Погода
 

[Quote]
HUNTER

Фантазия 2000 / Fantasia 2000
Страна: США
Жанр: мультфильм, фэнтези, комедия, семейный, музыка
Продолжительность: 01:14:32
Год выпуска: 1999
Перевод: Профессиональный (многоголосый закадровый) Невафильм [1 канал]
Перевод 2: Авторский (одноголосый закадровый) С.Визгунов
Перевод 3: Авторский (одноголосый закадровый) Ю.Живов
Русские субтитры: есть
Режиссёр: Джеймс Элгар, Гаэтан Брицци, Пол Брицци,
Роли озвучивали: Леопольд Стоковски, Ральф Грирсон, Кэтлин Бэттл, Стив Мартин, Ицхак Перлман, Куинси Джонс, Бетт Мидлер, Джеймс Эрл Джонс, Пенн Джиллетт
Описание: Спустя почти 60 лет аниматоры корпорации «Дисней» вынесли на суд зрителей продолжение гениального фильма, создав рисованные этюды на музыку Бетховена, Респиги, Гершвина, Шостаковича, Сен-Санса, Элгара и Стравинского. Также в «Фантазию 2000» вошел классический эпизод из первой «Фантазии» — «Ученик колдуна».

Семпл: https://yadi.sk/i/vJ2f2f6y3TEYws
Качество: BDRip 1080p
Формат: MKV
Видео: 1920x1080 (16:9), 23.976 fps, AVC, ~9000 Kbps, 0.181 bits/pixel
Аудио: Russian, 48.0 KHz, AC3, 6 ch, 640 Kbps - Многоголосый - Невафильм [1 канал]
Аудио 2: Russian, 48.0 KHz, AC3, 6 ch, 448 Kbps - Авторский - С.Визгунов
Аудио 3: Russian, 48.0 KHz, AC3, 5 ch, 384 Kbps - Авторский - Ю.Живов
Аудио 4: English, 48.0 KHz, DTS, 6 ch, 1510 Kbps - English
Субтитры: Russian, English,

Подробные технические данные

Общее
Уникальный идентификатор : 230488236581545782484309956997789236860 (0xAD666B6F3D7E33AAB0FE85D71BAFBE7C)
Полное имя : F:\Fantasia.2000.1999.x264.BDRip.1080p.3xRus.Eng.mkv
Формат : Matroska
Версия формата : Version 4 / Version 2
Размер файла : 6,24 Гбайт
Продолжительность : 1 ч. 14 м.
Общий поток : 12,0 Мбит/сек
Дата кодирования : UTC 2018-03-10 18:38:34
Программа кодирования : mkvmerge v7.9.0 ('Birds') 64bit
Библиотека кодирования : libebml v1.3.1 + libmatroska v1.4.2
DURATION : 01:14:31.008000000
NUMBER_OF_FRAMES : 139719
NUMBER_OF_BYTES : 214608384
_STATISTICS_WRITING_APP : mkvmerge v7.9.0 ('Birds') 64bit
_STATISTICS_WRITING_DATE_UTC : 2018-03-10 18:38:34
_STATISTICS_TAGS : BPS DURATION NUMBER_OF_FRAMES NUMBER_OF_BYTES
Видео
Идентификатор : 1
Формат : AVC
Формат/Информация : Advanced Video Codec
Профиль формата : [email protected]
Параметр CABAC формата : Да
Параметр ReFrames формата : 4 кадра
Идентификатор кодека : V_MPEG4/ISO/AVC
Продолжительность : 1 ч. 14 м.
Битрейт : 9000 Кбит/сек
Ширина : 1920 пикселей
Высота : 1080 пикселей
Соотношение сторон : 16:9
Режим частоты кадров : Постоянный
Частота кадров : 23,976 кадра/сек
Цветовое пространство : YUV
Субдискретизация насыщенности : 4:2:0
Битовая глубина : 8 бит
Тип развёртки : Прогрессивная
Бит/(Пиксели*Кадры) : 0.181
Размер потока : 4,56 Гбайт (73%)
Библиотека кодирования : x264 core 107 r1745+311 2317302
Настройки программы : cabac=1 / ref=4 / deblock=1:-3:-3 / analyse=0x3:0x133 / me=umh / subme=10 / psy=1 / fade_compensate=0.00 / psy_rd=1.00:0.00 / mixed_ref=1 / me_range=32 / chroma_me=1 / trellis=2 / 8x8dct=1 / cqm=0 / deadzone=21,11 / fast_pskip=0 / chroma_qp_offset=-2 / threads=18 / sliced_threads=0 / nr=0 / decimate=0 / interlaced=0 / constrained_intra=0 / fgo=0 / bframes=7 / b_pyramid=2 / b_adapt=2 / b_bias=0 / direct=3 / weightb=1 / open_gop=0 / weightp=2 / keyint=250 / keyint_min=23 / scenecut=40 / intra_refresh=0 / rc=2pass / mbtree=0 / bitrate=9000 / ratetol=1.0 / qcomp=0.60 / qpmin=10 / qpmax=51 / qpstep=4 / cplxblur=20.0 / qblur=0.5 / ip_ratio=1.40 / pb_ratio=1.30 / aq=2:0.50
Язык : English
Default : Да
Forced : Нет
DURATION : 01:14:32.684000000
NUMBER_OF_FRAMES : 107237
NUMBER_OF_BYTES : 5030680227
_STATISTICS_WRITING_APP : mkvmerge v7.9.0 ('Birds') 64bit
_STATISTICS_WRITING_DATE_UTC : 2018-03-10 18:38:34
_STATISTICS_TAGS : BPS DURATION NUMBER_OF_FRAMES NUMBER_OF_BYTES
Аудио #1
Идентификатор : 2
Формат : AC-3
Формат/Информация : Audio Coding 3
Расширение режима : CM (complete main)
Параметр Endianness формата : Big
Идентификатор кодека : A_AC3
Продолжительность : 1 ч. 14 м.
Вид битрейта : Постоянный
Битрейт : 640 Кбит/сек
Каналы : 6 каналов
Расположение каналов : Front: L C R, Side: L R, LFE
Частота : 48,0 КГц
Битовая глубина : 16 бит
Метод сжатия : С потерями
Размер потока : 341 Мбайт (5%)
Заголовок : Многоголосый - Невафильм [1 канал]
Язык : Russian
Default : Да
Forced : Нет
Аудио #2
Идентификатор : 3
Формат : AC-3
Формат/Информация : Audio Coding 3
Расширение режима : CM (complete main)
Параметр Endianness формата : Big
Идентификатор кодека : A_AC3
Продолжительность : 1 ч. 14 м.
Вид битрейта : Постоянный
Битрейт : 448 Кбит/сек
Каналы : 6 каналов
Расположение каналов : Front: L C R, Side: L R, LFE
Частота : 48,0 КГц
Битовая глубина : 16 бит
Метод сжатия : С потерями
Размер потока : 239 Мбайт (4%)
Заголовок : Авторский - С.Визгунов
Язык : Russian
Default : Нет
Forced : Нет
Аудио #3
Идентификатор : 4
Формат : AC-3
Формат/Информация : Audio Coding 3
Расширение режима : CM (complete main)
Параметр Endianness формата : Big
Идентификатор кодека : A_AC3
Продолжительность : 1 ч. 14 м.
Вид битрейта : Постоянный
Битрейт : 384 Кбит/сек
Каналы : 5 каналов
Расположение каналов : Front: L C R, Side: L R
Частота : 48,0 КГц
Битовая глубина : 16 бит
Метод сжатия : С потерями
Размер потока : 205 Мбайт (3%)
Заголовок : Авторский - Ю.Живов
Язык : Russian
Default : Нет
Forced : Нет
Аудио #4
Идентификатор : 5
Формат : DTS
Формат/Информация : Digital Theater Systems
Режим : 16
Параметр Endianness формата : Big
Идентификатор кодека : A_DTS
Продолжительность : 1 ч. 14 м.
Вид битрейта : Постоянный
Битрейт : 1509 Кбит/сек
Каналы : 6 каналов
Расположение каналов : Front: L C R, Side: L R, LFE
Частота : 48,0 КГц
Битовая глубина : 24 бит
Метод сжатия : С потерями
Размер потока : 805 Мбайт (13%)
Заголовок : English
Язык : English
Default : Нет
Forced : Нет
Текст #1
Идентификатор : 6
Формат : UTF-8
Идентификатор кодека : S_TEXT/UTF8
Идентификатор кодека/Информация : UTF-8 Plain Text
Язык : Russian
Default : Да
Forced : Нет
Текст #2
Идентификатор : 7
Формат : UTF-8
Идентификатор кодека : S_TEXT/UTF8
Идентификатор кодека/Информация : UTF-8 Plain Text
Язык : English
Default : Нет
Forced : Нет
Меню
00:00:00.000 : en:Opening/Main Title.
00:01:16.493 : en:"Symphony No. 5" (Ludwig Van Beethoven)
00:04:08.540 : en:Introduction (Steve Martin and Itzhak Perlman)
00:05:36.628 : en:"Pines Of Rome" (Ottorino Respighi)
00:15:50.366 : en:Introduction (Quincy Jones)
00:16:46.005 : en:"Rhapsody In Blue" (George Gershwin)
00:29:18.590 : en:Introduction (Bette Midler)
00:30:34.750 : en:"Piano Concerto No. 2, Allegro, Opus 102" (Dmitri Shostakovich)
00:38:04.115 : en:Introduction (James Earl Jones)
00:38:47.534 : en:"Carnival Of The Animals, Finale" (Camille Saint-Saens)
00:40:41.981 : en:Introduction (Penn & Teller)
00:42:16.534 : en:"The Sorcerer's Apprentice" (Paul Dukas)
00:51:52.609 : en:Introduction (James Levine)
00:52:51.794 : en:"Pomp And Circumstance-Marches 1, 2, 3 and 4" (Sir Edward Elgar)
00:59:08.962 : en:Introduction (Angela Lansbury)
00:59:32.778 : en:"Firebird Suite-1919 Version" (Igor Stravinsky)
01:08:46.122 : en:End Credits

Скриншоты

Внимание:
Цитата:
Наложение озвучки "Первого канала" сделано только на центральный канал


Display posts:    

Current time is: 16-Oct 11:22

All times are UTC ± 0


You cannot post new topics in this forum
You cannot reply to topics in this forum
You cannot edit your posts in this forum
You cannot delete your posts in this forum
You cannot vote in polls in this forum
You cannot attach files in this forum
You cannot download files in this forum

!ATTENTION!
The site does not give electronic versions of products, and is engaged only in a collecting and cataloguing of the references sent and published at a forum by our readers. If you are the legal owner of any submitted material and do not wish that the reference to it was in our catalogue, contact us and we shall immediately remove her. Files for an exchange on tracker are given by users of a site, and the administration does not bear the responsibility for their maintenance. The request to not fill in the files protected by copyrights, and also files of the illegal maintenance!