Ивановский Торрент трекер
Яндекс.Погода
 

[Quote]
HUNTER

Его девушка Пятница / His Girl Friday- Год выпуска: 1940
Страна: США
Жанр: комедия
Продолжительность: 01:32:08
Перевод 1: Профессиональный (многоголосый закадровый) Film Prestige
Перевод 2: Профессиональный (двухголосый закадровый) Фильм-Экспорт
Оригинальная аудиодорожка: Английская
Субтитры: Русские (Film Prestige), английские (полные, для слабослышащих), испанские, французские, португальские, турецкие, румынские, греческие-Режиссер: Хоуард Хоукс / Howard Hawks
В ролях: Кэри Грант, Розалинд Расселл, Ральф Беллами, Джин Локхарт, Портер Холл, Эрнест Труэкс, Клифф Эдвардс, Клэренс Колб, Роско Карнс, Фрэнк Дженкс, Реджис Туми, Эбнер Биберман-Описание:
Уолтер Бернс — главный редактор газеты. Хильди Джонсон, его бывшая жена и лучший репортер, сообщает Уолтеру, что планирует вновь выйти замуж и покинуть газету. Он не хочет терять лучшего сотрудника и все еще любимую женщину, и, чтобы выиграть время, дает Хильди последнее задание — взять интервью у приговоренного к смерти Мерфи. Это будет ее лучший репортаж, вершина карьеры..., Хильди соглашается и попадает в хитроумно расставленные Уолтером сети. Начинают происходить самые дикие и немыслимые вещи...-За дорожку Film Prestige спасибо Velimir P.
| | Сэмпл-Качество: BDRip 720p (V3RiTAS)
Контейнер: MKV
Видео: AVC (x264), 960x720 (1.33:1), 23.976 fps, 12022 kbps
Аудио 1: Русский AC3 2.0, 48 kHz, 192 kbps — Film Prestige
Аудио 2: Русский AC3 2.0, 48 kHz, 192 kbps — Фильм-Экспорт
Аудио 3: Английский FLAC 1.0, 48 kHz, 581 kbps, 24-bit
Аудио 4: Английский AC3 2.0, 48 kHz, 192 kbps — Комментарии

Скриншоты

Source vs Encode




MI

nfo

RELEASE SiZE..: 8.24 GiB
RUNTiME.......: 1:32:08
VIDEO CODEC...: x264, CRF18.9, [email protected]
FRAMERATE.....: 23.976 fps
RESOLUTiON....: 960x720
BiTRATE.......: 12.0 Mbps (~34% source)
AUDiO.........: English FLAC 1.0 24 bits @ 589 Kbps
AUDiO 2.......: English AC3 2.0 @ 192 Kbps (Commentary with film critic)
SUBTiTLES.....: English, Eng-SDH, Spa, Fre, Por, Tur, Rom, Gre (.srt)
CHAPTERS......: Included, Named
SOURCE........: [Criterion] 1080p Blu-ray AVC LPCM 1.0-CiNEMATiC
x264 iNFO
x264 [info]: frame I:677 Avg QP:20.81 size:106745
x264 [info]: frame P:21530 Avg QP:21.86 size: 77079
x264 [info]: frame B:110346 Avg QP:23.02 size: 59597
Consecutive B-frames: 0.6% 0.4% 1.3% 6.7% 10.7% 44.6% 12.0% 5.8% 5.9% 7.3% 4.7%
>>> GREETiNGS : Every encoder and supplier who shares the love <3
General
Unique ID : 185966380348901846367625090190611640608 (0x8BE7D2724889F52E1D6928D01E18F120)
Complete name : His.Girl.Friday.1940.720p.BluRay.DD2.0.FLAC1.0.x264-V3RiTAS.mkv
Format : Matroska
Format version : Version 2
File size : 8.49 GiB
Duration : 1 h 32 min
Overall bit rate mode : Variable
Overall bit rate : 13.2 Mb/s
Movie name : His Girl Friday / Его девушка Пятница (1940) – RuTracker
Encoded date : UTC 2018-01-28 19:49:21
Writing application : mkvmerge v20.0.0 ('I Am The Sun') 64-bit
Writing library : libebml v1.3.5 + libmatroska v1.4.8
Cover : Yes
Attachments : cover.jpg
Video
ID : 1
Format : AVC
Format/Info : Advanced Video Codec
Format profile : [email protected]
Format settings, CABAC : Yes
Format settings, ReFrames : 12 frames
Codec ID : V_MPEG4/ISO/AVC
Duration : 1 h 32 min
Bit rate : 12.0 Mb/s
Width : 960 pixels
Height : 720 pixels
Display aspect ratio : 4:3
Frame rate mode : Constant
Frame rate : 23.976 (24000/1001) FPS
Color space : YUV
Chroma subsampling : 4:2:0
Bit depth : 8 bits
Scan type : Progressive
Bits/(Pixel*Frame) : 0.725
Stream size : 7.74 GiB (91%)
Title : His.Girl.Friday.1940.720p.BluRay.FLAC1.0.x264-V3RiTAS
Writing library : x264 core 148 r2744+55 950084e t_mod_Custom [[email protected] X86_64]
Encoding settings : cabac=1 / ref=12 / deblock=1:-3:-3 / analyse=0x3:0x133 / me=tesa / subme=11 / psy=1 / fade_compensate=0.00 / psy_rd=1.10:0.00 / mixed_ref=1 / me_range=24 / chroma_me=1 / trellis=2 / 8x8dct=1 / cqm=0 / deadzone=21,11 / fast_pskip=0 / chroma_qp_offset=-2 / threads=12 / lookahead_threads=3 / sliced_threads=0 / nr=0 / decimate=0 / interlaced=0 / bluray_compat=0 / constrained_intra=0 / fgo=0 / bframes=10 / b_pyramid=2 / b_adapt=2 / b_bias=0 / direct=3 / weightb=1 / open_gop=0 / weightp=2 / keyint=250 / keyint_min=23 / scenecut=40 / intra_refresh=0 / rc_lookahead=60 / rc=crf / mbtree=0 / crf=18.9000 / qcomp=0.70 / qpmin=0:0:0 / qpmax=69:69:69 / qpstep=4 / vbv_maxrate=62500 / vbv_bufsize=78125 / crf_max=0.0 / nal_hrd=none / filler=0 / ip_ratio=1.25 / pb_ratio=1.15 / aq=1:0.65 / aq-sensitivity=10.00 / aq-factor=1.00:1.00:1.00 / aq2=0 / aq3=0
Language : English
Default : Yes
Forced : No
Audio #1
ID : 2
Format : AC-3
Format/Info : Audio Coding 3
Format settings, Endianness : Big
Codec ID : A_AC3
Duration : 1 h 32 min
Bit rate mode : Constant
Bit rate : 192 kb/s
Channel(s) : 2 channels
Channel positions : Front: L R
Sampling rate : 48.0 kHz
Frame rate : 31.250 FPS (1536 spf)
Bit depth : 16 bits
Compression mode : Lossy
Stream size : 127 MiB (1%)
Title : MVO – Film Prestige
Language : Russian
Service kind : Complete Main
Default : Yes
Forced : No
Audio #2
ID : 3
Format : AC-3
Format/Info : Audio Coding 3
Format settings, Endianness : Big
Codec ID : A_AC3
Duration : 1 h 32 min
Bit rate mode : Constant
Bit rate : 192 kb/s
Channel(s) : 2 channels
Channel positions : Front: L R
Sampling rate : 48.0 kHz
Frame rate : 31.250 FPS (1536 spf)
Bit depth : 16 bits
Compression mode : Lossy
Stream size : 127 MiB (1%)
Title : DVO – Фильм-Экспорт
Language : Russian
Service kind : Complete Main
Default : No
Forced : No
Audio #3
ID : 4
Format : FLAC
Format/Info : Free Lossless Audio Codec
Codec ID : A_FLAC
Duration : 1 h 32 min
Bit rate mode : Variable
Bit rate : 581 kb/s
Channel(s) : 1 channel
Channel positions : Front: C
Sampling rate : 48.0 kHz
Frame rate : 11.719 FPS (4096 spf)
Bit depth : 24 bits
Stream size : 383 MiB (4%)
Title : Original
Writing library : libFLAC 1.3.2 (UTC 2017-01-01)
Language : English
Default : No
Forced : No
Audio #4
ID : 5
Format : AC-3
Format/Info : Audio Coding 3
Format settings, Endianness : Big
Codec ID : A_AC3
Duration : 1 h 32 min
Bit rate mode : Constant
Bit rate : 192 kb/s
Channel(s) : 2 channels
Channel positions : Front: L R
Sampling rate : 48.0 kHz
Frame rate : 31.250 FPS (1536 spf)
Bit depth : 16 bits
Compression mode : Lossy
Stream size : 127 MiB (1%)
Title : Commentary with film critic Todd McCarthy
Language : English
Service kind : Complete Main
Default : No
Forced : No
Text #1
ID : 6
Format : UTF-8
Codec ID : S_TEXT/UTF8
Codec ID/Info : UTF-8 Plain Text
Duration : 1 h 31 min
Bit rate : 171 b/s
Count of elements : 1602
Stream size : 115 KiB (0%)
Title : Film Prestige
Language : Russian
Default : No
Forced : No
Text #2
ID : 7
Format : UTF-8
Codec ID : S_TEXT/UTF8
Codec ID/Info : UTF-8 Plain Text
Duration : 1 h 30 min
Bit rate : 141 b/s
Count of elements : 1852
Stream size : 93.8 KiB (0%)
Language : English
Default : No
Forced : No
Text #3
ID : 8
Format : UTF-8
Codec ID : S_TEXT/UTF8
Codec ID/Info : UTF-8 Plain Text
Duration : 1 h 30 min
Bit rate : 144 b/s
Count of elements : 1875
Stream size : 95.4 KiB (0%)
Title : SDH
Language : English
Default : No
Forced : No
Text #4
ID : 9
Format : UTF-8
Codec ID : S_TEXT/UTF8
Codec ID/Info : UTF-8 Plain Text
Duration : 1 h 31 min
Bit rate : 88 b/s
Count of elements : 1846
Stream size : 58.8 KiB (0%)
Language : Spanish
Default : No
Forced : No
Text #5
ID : 10
Format : UTF-8
Codec ID : S_TEXT/UTF8
Codec ID/Info : UTF-8 Plain Text
Duration : 1 h 30 min
Bit rate : 98 b/s
Count of elements : 1967
Stream size : 65.3 KiB (0%)
Language : French
Default : No
Forced : No
Text #6
ID : 11
Format : UTF-8
Codec ID : S_TEXT/UTF8
Codec ID/Info : UTF-8 Plain Text
Duration : 1 h 31 min
Bit rate : 97 b/s
Count of elements : 2000
Stream size : 64.7 KiB (0%)
Language : Portuguese
Default : No
Forced : No
Text #7
ID : 12
Format : UTF-8
Codec ID : S_TEXT/UTF8
Codec ID/Info : UTF-8 Plain Text
Duration : 1 h 30 min
Bit rate : 97 b/s
Count of elements : 1737
Stream size : 64.6 KiB (0%)
Language : Turkish
Default : No
Forced : No
Text #8
ID : 13
Format : UTF-8
Codec ID : S_TEXT/UTF8
Codec ID/Info : UTF-8 Plain Text
Duration : 1 h 30 min
Bit rate : 126 b/s
Count of elements : 1995
Stream size : 83.4 KiB (0%)
Language : Romanian
Default : No
Forced : No
Text #9
ID : 14
Format : UTF-8
Codec ID : S_TEXT/UTF8
Codec ID/Info : UTF-8 Plain Text
Duration : 1 h 31 min
Bit rate : 154 b/s
Count of elements : 1849
Stream size : 103 KiB (0%)
Language : Greek
Default : No
Forced : No
Menu
00:00:00.000 : en:01. A better offer
00:14:58.731 : en:02. “His grandfather was a snake”
00:24:22.461 : en:03. “More slop on the hanging”
00:27:53.171 : en:04. Walter’s insurance
00:32:39.374 : en:05. “Production for use”
00:35:21.369 : en:06. Wise guys
00:41:09.884 : en:07. “I’m back on the job”
00:47:36.687 : en:08. “The jailbreak of your dreams”
00:55:07.930 : en:09. “Shoot to kill”
00:58:16.702 : en:10. “You want a story?”
01:06:19.517 : en:11. “Never mind the European war”
01:13:00.668 : en:12. “Double-crossing swine”
01:19:41.610 : en:13. “Out of the mouths of babes”
01:27:23.947 : en:14. “Worst jam we’ve been in”


Display posts:    

Current time is: 23-Oct 17:06

All times are UTC ± 0


You cannot post new topics in this forum
You cannot reply to topics in this forum
You cannot edit your posts in this forum
You cannot delete your posts in this forum
You cannot vote in polls in this forum
You cannot attach files in this forum
You cannot download files in this forum

!ATTENTION!
The site does not give electronic versions of products, and is engaged only in a collecting and cataloguing of the references sent and published at a forum by our readers. If you are the legal owner of any submitted material and do not wish that the reference to it was in our catalogue, contact us and we shall immediately remove her. Files for an exchange on tracker are given by users of a site, and the administration does not bear the responsibility for their maintenance. The request to not fill in the files protected by copyrights, and also files of the illegal maintenance!