Джим Баттон / Джим Кнопка / Джим Пуговка / Jim Knopf / Jim Button / Сезон: 1-2 / Серии: 1-52 из 52 (Бруно Бьянки / Bruno Bianchi) [1999, Франция, Германия, Канада, США, комедия, приключения, DVDRemux] Dub (Fox Kids) + Original (Eng) + Dub (Deu) :: Российский Торрент трекер
Российский Торрент трекер
Яндекс.Погода
 

[Quote]
HUNTER

-Джим Баттон / Jim Button- Английское название: Jim Button
Русское название: Джим Баттон
Год выпуска: 1999
Страна: Франция, Германия, Канада, США
Жанр: комедия, приключения
Продолжительность: ТВ (52 эп.), ~ 22 минуты
Перевод: Профессиональный (Полное Дублирование) Студия "Intra" по заказу Fox Kids / Ren-TV
Русские субтитры: Нет
Английские субтитры: Нет-Режиссёр: Бруно Бьянки / Bruno Bianchi
Описание: Главными героями являются Джим и его верный друг Люк, путешествующие по миру на своем паровозе — Эмме! Эмма — это необычный паровоз, он так же может передвигаться без рельсов, но это еще не все! Эмма способна передвигаться по воде, что не раз спасало жизни Джимма и Люка от опасностей!-Релиз от: -Над релизом работали:
Выражаю огромнейшую благодарность следующим лицам:
kioki - Предоставил немецкие DVD диски.
naddyalex - Предоставил записи дубляжа Fox Kids.
s-mouche - Предоставил английские дорожки.
ddisc - Предоставил английские дорожки.
ALEKS KV - Работа со звуком, сведение звука, итоговый муксинг.-Ссылка на остальные раздачи-

Дубляж студии "Intra" для телеканалов Fox Kids / Ren-TV:

Валерий Соловьев, Владимир Маслаков, Татьяна Иванова.
-Сэмпл-Доп. Информация:
За основу видео взято упрощённое немецкое издание на 5 дисках. Существуют немецкие издания по 3-4 серии на диск, но достать их не представляется возможным, в сеть не выкладывали. А английские диски похоже вообще не выходили.
Русский дубляж взят с соседней раздачи, никаких пропусков замечено не было. Единственное отличие немецкой версии от той, что показали у нас, это перемонтированная заставка и титры. Ну и немецкая локализация в довесок. Альтернатив в хорошем качестве на данный момент - не существует.
Английский оригинал в сети есть только на первые 26 серий и качество у него чуть ниже среднего, местами имеются микро пропуски, но за отсутствием альтернатив, чем богаты тем и рады. Свёл для комплекта.

-
Качество: DVDRemux
Формат видео: MPEG-2
Контейнер: MKV
Аудио кодек: AC3
Видео: MPEG-2 8bit 720x576 25.000fps ~4000Kbps
Аудио:

  • русская: Dolby AC3 48000Hz --------|Dual Mono|--- 192Kbps [Fox Kids / Ren-TV] (Серии 01-52)

  • английская: Dolby AC3 48000Hz ---|Dual Mono|--- 192Kbps [Оригинал] (Серии 01-26)

  • немецкая: Dolby AC3 48000Hz --------|Stereo|----- 224Kbps [Dub] (Серии 01-52) {Серии 27-35 - Dual Mono}-

    Наличие серий в раздаче

    Сезон 1
    01. Посылка с сюрпризом
    02. Прекрасная пленница
    03. Мандала
    04. Отправление
    05. Белый мраморный дворец
    06. Западные ворота
    07. Лес Тысячи Чудес
    08. Как Джим и Люк перебирались через болото Грусти
    09. Корона мира
    10. Долина Сумерек
    11. Золотая шахта
    12. Каменная пустыня
    13. Мистер Тур Тур
    14. Ворота к краю света
    15. Теневая сторона
    16. Пещера Отчаяния
    17. Огненная граница
    18. Страна Тысячи Вулканов
    19. Пасть демона
    20. Пороховой остров
    21. Город Драконов
    22. Бегство из Гореземья
    23. Подземная река
    24. Разорённая земля
    25. Противоборство
    26. Возвращение домой

    Сезон 2
    27. Почтовый катер
    28. Магнит Гурумуш
    29. Перпетум мобиль
    30. Чудовище из оазиса
    31. Исчезновение Молли
    32. Предсказание Золотого Дракона Мудрости
    33. Лабиринт
    34. Великая морская битва
    35. Синие ракушки
    36. Холодная земля
    37. Невыносимый старый сборщик
    38. Судовой журнал
    39. Королевство Высь
    40. Принц из Гатамапутры
    41. Великая библиотека
    42. Металлический лес
    43. Мглистый край
    44. Тысяча вершин
    45. Музыкальные пузырьки
    46. Большой ветродуй
    47. Возвращение в город Драконов
    48. Океанское королевство
    49. Триумф Пи Па По
    50. Страна "Нет и не было"
    51. Кристалл Вечности
    52. Джамбала

    Подробные технические данные

    Серии 01-12

    General
    Unique ID : 242535913069057501082804616867361271814 (0xB676B7BEEA8ADAA565AA7D570D833006)
    Complete name : xxxxxxxxxx\[M-KV2501] Jim Button [DVDRemux]\[M-KV2501] Jim Button 1x26 (26) The Return Home [DVDRemux].mkv
    Format : Matroska
    Format version : Version 2
    File size : 706 MiB
    Duration : 23 min 7 s
    Overall bit rate mode : Variable
    Overall bit rate : 4 270 kb/s
    Encoded date : UTC 2022-05-10 06:58:36
    Writing application : mkvmerge v43.0.0 ('The Quartermaster') 64-bit
    Writing library : libebml v1.3.10 + libmatroska v1.5.2
    Video
    ID : 1
    Format : MPEG Video
    Format version : Version 2
    Format profile : [email protected]
    Format settings : CustomMatrix / BVOP
    Format settings, BVOP : Yes
    Format settings, Matrix : Custom
    Format settings, GOP : M=3, N=12
    Format settings, picture structure : Frame
    Codec ID : V_MPEG2
    Codec ID/Info : MPEG 1 or 2 Video
    Duration : 23 min 7 s
    Bit rate mode : Variable
    Bit rate : 3 657 kb/s
    Maximum bit rate : 4 300 kb/s
    Width : 720 pixels
    Height : 576 pixels
    Display aspect ratio : 4:3
    Frame rate mode : Constant
    Frame rate : 25.000 FPS
    Standard : PAL
    Color space : YUV
    Chroma subsampling : 4:2:0
    Bit depth : 8 bits
    Scan type : Interlaced
    Scan order : Top Field First
    Compression mode : Lossy
    Bits/(Pixel*Frame) : 0.353
    Time code of first frame : 00:00:00:00
    Time code source : Group of pictures header
    GOP, Open/Closed : Closed
    Stream size : 605 MiB (86%)
    Title : Localization
    Writing library : (dvd5: Oct 27 2015)
    Language : German
    Default : Yes
    Forced : No
    Audio #1
    ID : 2
    Format : AC-3
    Format/Info : Audio Coding 3
    Commercial name : Dolby Digital
    Codec ID : A_AC3
    Duration : 23 min 7 s
    Bit rate mode : Constant
    Bit rate : 192 kb/s
    Channel(s) : 2 channels
    Channel layout : L R
    Sampling rate : 48.0 kHz
    Frame rate : 31.250 FPS (1536 SPF)
    Compression mode : Lossy
    Stream size : 31.8 MiB (4%)
    Title : Fox Kids / Ren TV
    Language : Russian
    Service kind : Complete Main
    Default : Yes
    Forced : No
    Audio #2
    ID : 3
    Format : AC-3
    Format/Info : Audio Coding 3
    Commercial name : Dolby Digital
    Codec ID : A_AC3
    Duration : 23 min 7 s
    Bit rate mode : Constant
    Bit rate : 192 kb/s
    Channel(s) : 2 channels
    Channel layout : L R
    Sampling rate : 48.0 kHz
    Frame rate : 31.250 FPS (1536 SPF)
    Compression mode : Lossy
    Stream size : 31.8 MiB (4%)
    Title : Original
    Language : English
    Service kind : Complete Main
    Default : No
    Forced : No
    Audio #3
    ID : 4
    Format : AC-3
    Format/Info : Audio Coding 3
    Commercial name : Dolby Digital
    Codec ID : A_AC3
    Duration : 23 min 7 s
    Bit rate mode : Constant
    Bit rate : 224 kb/s
    Channel(s) : 2 channels
    Channel layout : L R
    Sampling rate : 48.0 kHz
    Frame rate : 31.250 FPS (1536 SPF)
    Compression mode : Lossy
    Stream size : 37.0 MiB (5%)
    Title : Dub
    Language : German
    Service kind : Complete Main
    Default : No
    Forced : No

    Правила, условия распространения (к прочтению обязательно)

    Внимание, данная раздача содержит эксклюзивный контент от M-KV2501. Использовать контент без баннера группы: и указания первоначального источника - ЗАПРЕЩЕНО!


  • Display posts:    

    Current time is: 26-May 10:49

    All times are UTC ± 0


    You cannot post new topics in this forum
    You cannot reply to topics in this forum
    You cannot edit your posts in this forum
    You cannot delete your posts in this forum
    You cannot vote in polls in this forum
    You cannot attach files in this forum
    You cannot download files in this forum

    !ATTENTION!
    The site does not give electronic versions of products, and is engaged only in a collecting and cataloguing of the references sent and published at a forum by our readers. If you are the legal owner of any submitted material and do not wish that the reference to it was in our catalogue, contact us and we shall immediately remove her. Files for an exchange on tracker are given by users of a site, and the administration does not bear the responsibility for their maintenance. The request to not fill in the files protected by copyrights, and also files of the illegal maintenance!