Ивановский Торрент трекер
Яндекс.Погода
 

[Quote]
HUNTER

Дюнкерк / Dunkirk«Событие, которое изменило мир»- Страна: Великобритания, Нидерланды, Франция, США
Студии: Warner Bros. Pictures, Syncopy, RatPac-Dune Entertainment
Жанр: Военный, драма, история
Год выпуска: 2017-Дата мировой премьеры: 13 июля 2017
Дата российской премьеры: 20 июля 2017, «Каро-Премьер»-Продолжительность: 01:42:16
Перевод: Профессиональный (дублированный) [Лицензия]
Субтитры: Английские, чешские, эстонские, латышские, литовские, португальские, русские
Оригинальная аудиодорожка: английская-Режиссер: Кристофер Нолан / Christopher Nolan
Продюсеры: Джон Бернард, Эрвин Годшалк, Джэйк Майерс
Актеры: Финн Уайтхед, Том Глинн-Карни, Джек Лауден, Гарри Стайлс, Анайрин Барнард, Том Харди, Джеймс Д’Арси, Барри Кеоган, Кеннет Брана, Киллиан Мёрфи, Марк Райлэнс-Описание:
Фильм расскажет историю чудесного спасения более трехсот тысяч солдат в ходе Дюнкеркской операции, имевшей место в начале Второй мировой войны. События начинаются с окружения сотен тысяч британских и союзных войск силами противника. Пойманные в ловушку на пляже, и находясь спиной к морю, они сталкиваются лицом к лицу с неразрешимой ситуацией, тем временем как тиски противника сжимаются все сильнее и сильнее.- -Качество: DVD5 (сжатый)
Формат: DVD-Video
Видео: MPEG-2, [email protected] (PAL 16:9), ~5300 Кбит/сек
Аудио 1: AC3 5.1, 384 Кбит/сек [Английский - оригинал]
Аудио 2: AC3 5.1, 384 Кбит/сек [Русский - дублированный]

DVDInfo

Title: Dunkirk (2017) DVD5
Size: 4.37 Gb ( 4 580 410 KBytes ) - DVD-5
Enabled regions: 1, 2, 3, 4, 5, 6, 7, 8
VTS_01 :
Play Length: 01:42:16
Video: PAL 16:9 (720x576) VBR, Auto Pan&Scan
Audio:
English (Dolby AC3, 6 ch)
Russian (Dolby AC3, 6 ch)
Subtitles:
English
Czech(Ceske)
Estonian
Latvian
Lithuanian
Portugues
Russian
Czech(Ceske)
Russian
Menu Video:
PAL 16:9 (720x576) VBR
Auto Letterboxed
Menu Subtitles:
Not specified
Menu Language Unit :
Root Menu

MediaInfo

Общее
Полное имя : V:\Torrents\Dunkirk (2017) DVD5\VIDEO_TS\VTS_01_1.VOB
Формат : MPEG-PS
Размер файла : 1024 Мбайт
Продолжительность : 23 м. 11 с.
Режим общего битрейта : Переменный
Общий поток : 6173 Кбит/сек
Видео
Идентификатор : 224 (0xE0)
Формат : MPEG Video
Версия формата : Version 2
Профиль формата : [email protected]
Настройки формата : CustomMatrix / BVOP
Параметр BVOP формата : Да
Параметр матрицы формата : Выборочная
Параметр GOP формата : Variable
Продолжительность : 23 м. 11 с.
Вид битрейта : Переменный
Битрейт : 5283 Кбит/сек
Максимальный битрейт : 8636 Кбит/сек
Ширина : 720 пикселей
Высота : 576 пикселей
Соотношение сторон : 16:9
Частота кадров : 25,000 кадров/сек
Стандарт вещания : PAL
Цветовое пространство : YUV
Субдискретизация насыщенности : 4:2:0
Битовая глубина : 8 бит
Тип развёртки : Прогрессивная
Порядок развёртки : Верхнее поле первое
Метод сжатия : С потерями
Бит/(Пиксели*Кадры) : 0.510
Временной код первого кадра : 00:00:00:00
Оригинал временного кода : Group of pictures header
GOP, открыто/закрыто : Открыто
GOP, открыто/закрыто на первом кадре : Закрыто
Размер потока : 876 Мбайт (86%)
Аудио #1
Идентификатор : 189 (0xBD)-128 (0x80)
Формат : AC-3
Формат/Информация : Audio Coding 3
Параметр Endianness формата : Big
Режим смешивания : DVD-Video
Продолжительность : 23 м. 11 с.
Вид битрейта : Постоянный
Битрейт : 384 Кбит/сек
Каналы : 6 каналов
Расположение каналов : Front: L C R, Side: L R, LFE
Частота : 48,0 КГц
Частота кадров : 31,250 кадров/сек (1536 SPF)
Битовая глубина : 16 бит
Метод сжатия : С потерями
Размер потока : 63,7 Мбайт (6%)
ServiceKind/String : Complete Main
Аудио #2
Идентификатор : 189 (0xBD)-130 (0x82)
Формат : AC-3
Формат/Информация : Audio Coding 3
Параметр Endianness формата : Big
Режим смешивания : DVD-Video
Продолжительность : 23 м. 11 с.
Вид битрейта : Постоянный
Битрейт : 384 Кбит/сек
Каналы : 6 каналов
Расположение каналов : Front: L C R, Side: L R, LFE
Частота : 48,0 КГц
Частота кадров : 31,250 кадров/сек (1536 SPF)
Битовая глубина : 16 бит
Метод сжатия : С потерями
Размер потока : 63,7 Мбайт (6%)
ServiceKind/String : Complete Main
Меню

Доп. информация

Исходник: http://rutracker.org/forum/viewtopic.php?t=5508593 (R2)
Удалены: предупреждающие надписи, чешская звуковая дорожка (в меню кнопки затёрты).
Команды диска переписаны заново, оставлен один VTS.
Видео сжато на 25,7%.
Меню: статичное, недействующая кнопка затерта и закрыта.
Обработка и сжатие: DVD ReMake Pro + DVD Rebuilder + CCE SP2 [7 проходов] + Работа с меню (Adobe PhotoShop и MuxMan).

Лог кодирования DVD Rebuilder

-----------------
[14:03:24] Phase I, PREPARATION started.
- DVD-RB v1.28.2
- AVISYNTH 2.6.0.5
- CCE 1.0.1.9 encoder selected.
- Source: DUNKIRK (2017) DVD5
- VTS_01: 2 928 025 sectors.
-- Scanning and writing .D2V & .AVS files
-- Processed 153 401 frames.
-- Building .AVS and .ECL files
- Reduction Level for DVD-5: 74,3%
- Overall Bitrate : 5 136Kbs
- Space for Video : 3 846 980KB
- HIGH/LOW/TYPICAL Bitrates: 8 104/3 796/5 136 Kbs
[14:04:39] Phase I, PREPARATION completed in 1 minutes.
- WARNING: Viewer/Editor settings are over target.
[14:05:51] Phase II ENCODING started
- Creating M2V for VTS_01 segment 0
- Creating M2V for VTS_01 segment 1
- Creating M2V for VTS_01 segment 2
- Creating M2V for VTS_01 segment 3
- Creating M2V for VTS_01 segment 4
- Creating M2V for VTS_01 segment 5
- Creating M2V for VTS_01 segment 6
- Creating M2V for VTS_01 segment 7
- Creating M2V for VTS_01 segment 8
- Creating M2V for VTS_01 segment 9
- Creating M2V for VTS_01 segment 10
- Creating M2V for VTS_01 segment 11
- Extracting STILLS for VTS_01 segment 12
[15:09:33] Phase II ENCODING completed in 64 minutes.
- WARNING: Viewer/Editor settings are over target.
[15:10:25] Phase III, REBUILD started.
- Copying IFO, BUP, and unaltered files...
- Processing VTS_01
- Reading/processing TMAP table...
- Rebuilding seg 0 VOBID 1 CELLID 1
- Rebuilding seg 1 VOBID 1 CELLID 2
- Rebuilding seg 2 VOBID 1 CELLID 3
- Rebuilding seg 3 VOBID 1 CELLID 4
- Rebuilding seg 4 VOBID 1 CELLID 5
- Rebuilding seg 5 VOBID 1 CELLID 6
- Updating NAVPACKS for VOBID_01
- Rebuilding seg 6 VOBID 2 CELLID 1
- Rebuilding seg 7 VOBID 2 CELLID 2
- Rebuilding seg 8 VOBID 2 CELLID 3
- Rebuilding seg 9 VOBID 2 CELLID 4
- Rebuilding seg 10 VOBID 2 CELLID 5
- Rebuilding seg 11 VOBID 2 CELLID 6
- Updating NAVPACKS for VOBID_02
- Rebuilding seg 12 VOBID 3 CELLID 1
- Updating NAVPACKS for VOBID_03
- Updated VTS_C_ADT.
- Updated VTS_VOBU_ADMAP.
- Updated IFO: VTS_01_0.IFO
- Updating TMAP table...
- Correcting VTS Sectors...
[15:17:16] Phase III, REBUILD completed in 7 minutes.
Done.
-

Скриншоты меню

Скриншоты фильма

Раздаю с 10:00 до 23:00 до 10 скачавших.


Display posts:    

Current time is: 16-Oct 11:08

All times are UTC ± 0


You cannot post new topics in this forum
You cannot reply to topics in this forum
You cannot edit your posts in this forum
You cannot delete your posts in this forum
You cannot vote in polls in this forum
You cannot attach files in this forum
You cannot download files in this forum

!ATTENTION!
The site does not give electronic versions of products, and is engaged only in a collecting and cataloguing of the references sent and published at a forum by our readers. If you are the legal owner of any submitted material and do not wish that the reference to it was in our catalogue, contact us and we shall immediately remove her. Files for an exchange on tracker are given by users of a site, and the administration does not bear the responsibility for their maintenance. The request to not fill in the files protected by copyrights, and also files of the illegal maintenance!