Ивановский Торрент трекер
Яндекс.Погода
 

[Quote]
HUNTER

Доллары текут рекой / Кровавые холмы / Un fiume di dollari
Страна: Италия
Жанр: вестерн, боевик
Год выпуска: 1966
Продолжительность: 01:25:41
Перевод: Профессиональный (двухголосый закадровый) НТВ+
Субтитры: нет
Оригинальная аудиодорожка: английский
Режиссер: Карло Лидзани / Carlo Lizzani
В ролях: Томас Хантер, Генри Сильва, Дэн Дюрьи, Николетта Макиавелли, Джина Серра, Нандо Гацолло, Джеффри Коплстон...
Описание: Джерри Брюстер и Кен Сигал грабят армейскую казну. Вытянутый жребий решает, кто уходит со всеми деньгами, а кто расплачивается за двоих… Возвратившись домой после пяти долгих лет, проведённых за решёткой, Джерри узнаёт, что его жена умерла, не получив никакой помощи от его бывшего друга, который к тому же забрал его сына. С этих пор месть становится смыслом существования Брюстера.

Сэмпл: http://sendfile.su/1402986
Тип релиза: HDTV 1080i
Контейнер: TS
Видео: AVC, 1920х1080, 7032 Kbps, 25.000 fps
Аудио: русский, MP2, 2 ch, 192 Kbps, 48.0 KHz
Аудио 2: английский, MP2, 2 ch, 192 Kbps, 48.0 KHz
Rip by

MediaInfo

General
ID : 1 (0x1)
Complete name : W:\Рипер 1\Доллары текут рекой HDTVRip 1080i (1966).ts
Format : MPEG-TS
File size : 4.67 GiB
Duration : 1h 25mn
Overall bit rate mode : Variable
Overall bit rate : 7 806 Kbps
Video
ID : 1210 (0x4BA)
Menu ID : 142 (0x8E)
Format : AVC
Format/Info : Advanced Video Codec
Format profile : [email protected]
Format settings, CABAC : Yes
Format settings, ReFrames : 4 frames
Format settings, GOP : M=4, N=28
Codec ID : 27
Duration : 1h 25mn
Bit rate : 7 032 Kbps
Width : 1 920 pixels
Height : 1 080 pixels
Display aspect ratio : 16:9
Frame rate : 25.000 fps
Standard : Component
Color space : YUV
Chroma subsampling : 4:2:0
Bit depth : 8 bits
Scan type : Interlaced
Scan order : Top Field First
Bits/(Pixel*Frame) : 0.136
Stream size : 4.21 GiB (90%)
Color primaries : BT.709
Transfer characteristics : BT.709
Matrix coefficients : BT.709
Audio #1
ID : 1211 (0x4BB)
Menu ID : 142 (0x8E)
Format : MPEG Audio
Format version : Version 1
Format profile : Layer 2
Codec ID : 3
Duration : 1h 25mn
Bit rate mode : Constant
Bit rate : 192 Kbps
Channel(s) : 2 channels
Sampling rate : 48.0 KHz
Compression mode : Lossy
Stream size : 118 MiB (2%)
Language : Russian
Audio #2
ID : 1212 (0x4BC)
Menu ID : 142 (0x8E)
Format : MPEG Audio
Format version : Version 1
Format profile : Layer 2
Codec ID : 3
Duration : 1h 25mn
Bit rate mode : Constant
Bit rate : 192 Kbps
Channel(s) : 2 channels
Sampling rate : 48.0 KHz
Compression mode : Lossy
Stream size : 118 MiB (2%)
Language : English

Скриншоты



Display posts:    

Current time is: 21-Oct 18:10

All times are UTC ± 0


You cannot post new topics in this forum
You cannot reply to topics in this forum
You cannot edit your posts in this forum
You cannot delete your posts in this forum
You cannot vote in polls in this forum
You cannot attach files in this forum
You cannot download files in this forum

!ATTENTION!
The site does not give electronic versions of products, and is engaged only in a collecting and cataloguing of the references sent and published at a forum by our readers. If you are the legal owner of any submitted material and do not wish that the reference to it was in our catalogue, contact us and we shall immediately remove her. Files for an exchange on tracker are given by users of a site, and the administration does not bear the responsibility for their maintenance. The request to not fill in the files protected by copyrights, and also files of the illegal maintenance!