Ивановский Торрент трекер
Яндекс.Погода
 

[Quote]
HUNTER

Долина теней / Valley of Shadows / Skyggenes dal
Страна: Норвегия
Жанр: драма, фильм-медитация
Год выпуска: 2017
Продолжительность: 01:27:13
Перевод: Одноголосый закадровый
Субтитры: русские, английские
Оригинальная аудиодорожка: норвежский
Режиссер: Йонас Матсов Гулбрандсен / Jonas Matzow Gulbrandsen
В ролях: Адам Экели, Катрине Фагерланд, Джон Ларсен, Леннард Саламон и др.
Описание: Между горами и морем в маленькой норвежской деревушке живут шестилетний Аслак и его мама. Кто-то в деревне убивает овец, а вскоре пропадает любимая собака Аслака. Мальчик отправляется на её поиски в тёмный лес недалеко от дома.
Доп. информация:
Перевод - Северный
Озвучание - Семён Ващенко
Организация перевода и озвучания - Minhers76
Сэмпл: https://yadi.sk/i/5fj_JLGK3VPaSy
Тип релиза: WEB-DL 1080p
Контейнер: MKV
Видео: AVC, 1920x1080 (16:9), 25.000 fps, 4994 kbps
Аудио 1: AC3, 48000 Hz, 6 ch, 448 kbps (русский)
Аудио 2: AC3, 48000 Hz, 6 ch, 384 kbps (норвежский)
Формат субтитров: softsub (SRT)

MediaInfo

General
Unique ID : 208584571899190824834006053113402168350 (0x9CEBED6341ABB5A881560EFF26E7141E)
Format : Matroska
Format version : Version 4 / Version 2
File size : 3.62 GiB
Duration : 1h 27mn
Overall bit rate : 5 944 Kbps
Encoded date : UTC 2018-05-05 02:00:49
Writing application : mkvmerge v9.4.2 ('So High') 64bit
Writing library : libebml v1.3.4 + libmatroska v1.4.5
DURATION : 01:21:15.040000000
NUMBER_OF_FRAMES : 213
NUMBER_OF_BYTES : 4977
_STATISTICS_WRITING_APP : mkvmerge v9.4.2 ('So High') 64bit
_STATISTICS_WRITING_DATE_UTC : 2018-05-05 02:00:49
_STATISTICS_TAGS : BPS DURATION NUMBER_OF_FRAMES NUMBER_OF_BYTES
Video
ID : 1
Format : AVC
Format/Info : Advanced Video Codec
Format profile : [email protected]
Format settings, CABAC : Yes
Format settings, ReFrames : 4 frames
Codec ID : V_MPEG4/ISO/AVC
Duration : 1h 27mn
Bit rate : 4 994 Kbps
Width : 1 920 pixels
Height : 1 080 pixels
Display aspect ratio : 16:9
Frame rate mode : Constant
Frame rate : 25.000 fps
Color space : YUV
Chroma subsampling : 4:2:0
Bit depth : 8 bits
Scan type : Progressive
Bits/(Pixel*Frame) : 0.096
Stream size : 3.04 GiB (84%)
Language : English
Default : Yes
Forced : No
Color range : Limited
Color primaries : BT.709
Transfer characteristics : BT.709
Matrix coefficients : BT.709
Audio #1
ID : 2
Format : AC-3
Format/Info : Audio Coding 3
Mode extension : CM (complete main)
Format settings, Endianness : Big
Codec ID : A_AC3
Duration : 1h 27mn
Bit rate mode : Constant
Bit rate : 448 Kbps
Channel(s) : 6 channels
Channel positions : Front: L C R, Side: L R, LFE
Sampling rate : 48.0 KHz
Compression mode : Lossy
Stream size : 279 MiB (8%)
Language : Russian
Default : Yes
Forced : No
Audio #2
ID : 3
Format : AC-3
Format/Info : Audio Coding 3
Mode extension : CM (complete main)
Format settings, Endianness : Big
Codec ID : A_AC3
Duration : 1h 27mn
Bit rate mode : Constant
Bit rate : 384 Kbps
Channel(s) : 6 channels
Channel positions : Front: L C R, Side: L R, LFE
Sampling rate : 48.0 KHz
Compression mode : Lossy
Stream size : 240 MiB (6%)
Language : Norwegian
Default : No
Forced : No
Text #1
ID : 4
Format : UTF-8
Codec ID : S_TEXT/UTF8
Codec ID/Info : UTF-8 Plain Text
Language : Russian
Default : No
Forced : No
Text #2
ID : 5
Format : UTF-8
Codec ID : S_TEXT/UTF8
Codec ID/Info : UTF-8 Plain Text
Language : English
Default : No
Forced : No
Menu
00:00:00.000 : en:1
00:15:00.000 : en:2
00:30:00.000 : en:3
00:45:00.000 : en:4
01:00:00.000 : en:5
01:15:00.000 : en:6
01:23:59.000 : en:7


Display posts:    

Current time is: 22-Oct 00:29

All times are UTC ± 0


You cannot post new topics in this forum
You cannot reply to topics in this forum
You cannot edit your posts in this forum
You cannot delete your posts in this forum
You cannot vote in polls in this forum
You cannot attach files in this forum
You cannot download files in this forum

!ATTENTION!
The site does not give electronic versions of products, and is engaged only in a collecting and cataloguing of the references sent and published at a forum by our readers. If you are the legal owner of any submitted material and do not wish that the reference to it was in our catalogue, contact us and we shall immediately remove her. Files for an exchange on tracker are given by users of a site, and the administration does not bear the responsibility for their maintenance. The request to not fill in the files protected by copyrights, and also files of the illegal maintenance!