Доктор Стрэндж: В мультивселенной безумия / Doctor Strange in the Multiverse of Madness (Сэм Рэйми / Sam Raimi) [2022, США, боевик, приключения, фэнтези, WEB-DL 1080p] [IMAX] MVO (NewComers) + Sub (Rus, Eng) + Original (Eng) :: Российский Торрент трекер
Российский Торрент трекер
Яндекс.Погода
DL-List and Torrent activity
Size:  7.64 GB   |    Registered:  2 days 16 hours   |    Completed:  3 times

Seeder not seen: 2 days 16 hours

 
     
 
 
 

[Quote]
HUNTER

Доктор Стрэндж: В мультивселенной безумия
Doctor Strange in the Multiverse of Madness
Страна: США
Жанр: Фантастика, фэнтези, боевик, приключения
Год выпуска: 2022
Продолжительность: 02:06:31
Перевод: Любительский (многоголосый закадровый) NewComers
Субтитры: русские (full), английские, чешские, датские, немецкие, греческие, испанские, финские, французские, венгерские, исландские, итальянские, японские, корейские, голландские, норвежские, польские, португальские, румынские, словацкие, шведские, турецкие, китайские
Оригинальная аудиодорожка: английская
Режиссер: Сэм Рэйми / Sam Raimi
В ролях: Бенедикт Камбербэтч, Элизабет Олсен, Сочил Гомес, Бенедикт Вонг, Рэйчел МакАдамс, Чиветель Эджиофор, Патрик Стюарт, Джон Красински, Хейли Этвелл, Энсон Маунт
Описание: Продолжение магических приключений Доктора Стрэнджа в новых мистических мирах и в противостоянии с новыми врагами.- -Качество: WEB-DL 1080p
Формат: MKV
Видео: AVC, 7488 kb/s, 1920x1080, 2,40:1, 23,976 fps
Аудио 1: AC-3 (Dolby Digital), 5.1, 48.0 kHz, 384 kb/s Russian
Аудио 2: E-AC-3 JOC 5.1ch @ 768 kb/s English
Формат субтитров: softsub (SRT)

MediaInfo

Общее
Уникальный идентификатор : 159777882695771532473883507266158122759 (0x783419D2D7CA18D57421ACB09B18D707)
Полное имя : D:\HD видео\Doctor Strange 2022\Doctor.Strange.in.the.Multiverse.of.Madness.2022.IMAX.1080p.mkv
Формат : Matroska
Версия формата : Version 4
Размер файла : 7,64 Гбайт
Продолжительность : 2 ч. 6 м.
Режим общего битрейта : Переменный
Общий поток : 8 644 Кбит/сек
Дата кодирования : UTC 2022-06-22 15:21:58
Программа кодирования : mkvmerge v68.0.0 ('The Curtain') 64-bit
Библиотека кодирования : libebml v1.4.2 + libmatroska v1.6.4
Видео
Идентификатор : 1
Формат : AVC
Формат/Информация : Advanced Video Codec
Профиль формата : [email protected]
Настройки формата : CABAC / 4 Ref Frames
Параметр CABAC формата : Да
Параметр RefFrames формата : 4 кадра
Идентификатор кодека : V_MPEG4/ISO/AVC
Продолжительность : 2 ч. 6 м.
Вид битрейта : Переменный
Битрейт : 7 488 Кбит/сек
Максимальный битрейт : 12,7 Мбит/сек
Ширина : 1 920 пикселей
Высота : 1 080 пикселей
Соотношение сторон : 16:9
Режим частоты кадров : Постоянный
Частота кадров : 23,976 (24000/1001) кадра/сек
Цветовое пространство : YUV
Субдискретизация насыщенности : 4:2:0
Битовая глубина : 8 бит
Тип развёртки : Прогрессивная
Бит/(Пиксели*Кадры) : 0.151
Размер потока : 6,62 Гбайт (87%)
Язык : English
Default : Да
Forced : Нет
Цветовой диапазон : Limited
Основные цвета : BT.709
Характеристики трансфера : BT.709
Коэффициенты матрицы : BT.709
Аудио #1
Идентификатор : 2
Формат : AC-3
Формат/Информация : Audio Coding 3
Коммерческое название : Dolby Digital
Идентификатор кодека : A_AC3
Продолжительность : 2 ч. 6 м.
Вид битрейта : Постоянный
Битрейт : 384 Кбит/сек
Каналы : 6 каналов
Channel layout : L R C LFE Ls Rs
Частота : 48,0 КГц
Частота кадров : 31,250 кадров/сек (1536 SPF)
Метод сжатия : С потерями
Размер потока : 348 Мбайт (4%)
Заголовок : MVO (NewComers)
Язык : Russian
Service kind : Complete Main
Default : Да
Forced : Нет
Аудио #2
Идентификатор : 3
Формат : E-AC-3 JOC
Формат/Информация : Enhanced AC-3 with Joint Object Coding
Коммерческое название : Dolby Digital Plus with Dolby Atmos
Идентификатор кодека : A_EAC3
Продолжительность : 2 ч. 6 м.
Вид битрейта : Постоянный
Битрейт : 768 Кбит/сек
Каналы : 6 каналов
Channel layout : L R C LFE Ls Rs
Частота : 48,0 КГц
Частота кадров : 31,250 кадров/сек (1536 SPF)
Метод сжатия : С потерями
Размер потока : 695 Мбайт (9%)
Язык : English
Service kind : Complete Main
Default : Нет
Forced : Нет
Complexity index : 16
Number of dynamic objects : 15
Bed channel count : 1 канал
Bed channel configuration : LFE
Текст #1
Идентификатор : 4
Формат : UTF-8
Идентификатор кодека : S_TEXT/UTF8
Идентификатор кодека/Информация : UTF-8 Plain Text
Продолжительность : 2 ч. 6 м.
Битрейт : 67 бит/сек
Count of elements : 1254
Размер потока : 62,4 Кбайт (0%)
Язык : Russian
Default : Нет
Forced : Нет
Текст #2
Идентификатор : 5
Формат : UTF-8
Идентификатор кодека : S_TEXT/UTF8
Идентификатор кодека/Информация : UTF-8 Plain Text
Продолжительность : 25 м. 8 с.
Битрейт : 1 бит/сек
Count of elements : 10
Размер потока : 265 байт (0%)
Заголовок : Forced
Язык : English
Default : Нет
Forced : Да
Текст #3
Идентификатор : 6
Формат : UTF-8
Идентификатор кодека : S_TEXT/UTF8
Идентификатор кодека/Информация : UTF-8 Plain Text
Продолжительность : 2 ч. 5 м.
Битрейт : 50 бит/сек
Count of elements : 1906
Размер потока : 46,1 Кбайт (0%)
Заголовок : SDH
Язык : English
Default : Нет
Forced : Нет
Текст #4
Идентификатор : 7
Формат : UTF-8
Идентификатор кодека : S_TEXT/UTF8
Идентификатор кодека/Информация : UTF-8 Plain Text
Продолжительность : 2 ч. 5 м.
Битрейт : 37 бит/сек
Count of elements : 1322
Размер потока : 34,2 Кбайт (0%)
Язык : English
Default : Нет
Forced : Нет
Текст #5
Идентификатор : 8
Формат : UTF-8
Идентификатор кодека : S_TEXT/UTF8
Идентификатор кодека/Информация : UTF-8 Plain Text
Продолжительность : 2 ч. 5 м.
Битрейт : 35 бит/сек
Count of elements : 1256
Размер потока : 32,1 Кбайт (0%)
Язык : Czech
Default : Нет
Forced : Нет
Текст #6
Идентификатор : 9
Формат : UTF-8
Идентификатор кодека : S_TEXT/UTF8
Идентификатор кодека/Информация : UTF-8 Plain Text
Продолжительность : 2 ч. 5 м.
Битрейт : 32 бит/сек
Count of elements : 815
Размер потока : 29,5 Кбайт (0%)
Язык : Danish
Default : Нет
Forced : Нет
Текст #7
Идентификатор : 10
Формат : UTF-8
Идентификатор кодека : S_TEXT/UTF8
Идентификатор кодека/Информация : UTF-8 Plain Text
Продолжительность : 2 ч. 5 м.
Битрейт : 33 бит/сек
Count of elements : 1150
Размер потока : 31,2 Кбайт (0%)
Язык : German
Default : Нет
Forced : Нет
Текст #8
Идентификатор : 11
Формат : UTF-8
Идентификатор кодека : S_TEXT/UTF8
Идентификатор кодека/Информация : UTF-8 Plain Text
Продолжительность : 2 ч. 5 м.
Битрейт : 44 бит/сек
Count of elements : 1297
Размер потока : 41,3 Кбайт (0%)
Заголовок : SDH
Язык : German
Default : Нет
Forced : Нет
Текст #9
Идентификатор : 12
Формат : UTF-8
Идентификатор кодека : S_TEXT/UTF8
Идентификатор кодека/Информация : UTF-8 Plain Text
Продолжительность : 2 ч. 5 м.
Битрейт : 62 бит/сек
Count of elements : 1244
Размер потока : 57,1 Кбайт (0%)
Язык : Greek
Default : Нет
Forced : Нет
Текст #10
Идентификатор : 13
Формат : UTF-8
Идентификатор кодека : S_TEXT/UTF8
Идентификатор кодека/Информация : UTF-8 Plain Text
Продолжительность : 2 ч. 5 м.
Битрейт : 35 бит/сек
Count of elements : 1248
Размер потока : 32,1 Кбайт (0%)
Язык : Spanish
Default : Нет
Forced : Нет
Текст #11
Идентификатор : 14
Формат : UTF-8
Идентификатор кодека : S_TEXT/UTF8
Идентификатор кодека/Информация : UTF-8 Plain Text
Продолжительность : 2 ч. 5 м.
Битрейт : 37 бит/сек
Count of elements : 1252
Размер потока : 34,5 Кбайт (0%)
Заголовок : Latin American
Язык : Spanish
Default : Нет
Forced : Нет
Текст #12
Идентификатор : 15
Формат : UTF-8
Идентификатор кодека : S_TEXT/UTF8
Идентификатор кодека/Информация : UTF-8 Plain Text
Продолжительность : 2 ч. 6 м.
Битрейт : 38 бит/сек
Count of elements : 1195
Размер потока : 35,2 Кбайт (0%)
Заголовок : Latin American SDH
Язык : Spanish
Default : Нет
Forced : Нет
Текст #13
Идентификатор : 16
Формат : UTF-8
Идентификатор кодека : S_TEXT/UTF8
Идентификатор кодека/Информация : UTF-8 Plain Text
Продолжительность : 2 ч. 5 м.
Битрейт : 37 бит/сек
Count of elements : 1246
Размер потока : 34,1 Кбайт (0%)
Язык : Finnish
Default : Нет
Forced : Нет
Текст #14
Идентификатор : 17
Формат : UTF-8
Идентификатор кодека : S_TEXT/UTF8
Идентификатор кодека/Информация : UTF-8 Plain Text
Продолжительность : 2 ч. 5 м.
Битрейт : 33 бит/сек
Count of elements : 1165
Размер потока : 30,7 Кбайт (0%)
Язык : French
Default : Нет
Forced : Нет
Текст #15
Идентификатор : 18
Формат : UTF-8
Идентификатор кодека : S_TEXT/UTF8
Идентификатор кодека/Информация : UTF-8 Plain Text
Продолжительность : 2 ч. 6 м.
Битрейт : 42 бит/сек
Count of elements : 1460
Размер потока : 39,6 Кбайт (0%)
Заголовок : SDH
Язык : French
Default : Нет
Forced : Нет
Текст #16
Идентификатор : 19
Формат : UTF-8
Идентификатор кодека : S_TEXT/UTF8
Идентификатор кодека/Информация : UTF-8 Plain Text
Продолжительность : 2 ч. 5 м.
Битрейт : 40 бит/сек
Count of elements : 1282
Размер потока : 37,0 Кбайт (0%)
Заголовок : Canadian
Язык : French
Default : Нет
Forced : Нет
Текст #17
Идентификатор : 20
Формат : UTF-8
Идентификатор кодека : S_TEXT/UTF8
Идентификатор кодека/Информация : UTF-8 Plain Text
Продолжительность : 2 ч. 5 м.
Битрейт : 57 бит/сек
Count of elements : 1957
Размер потока : 53,0 Кбайт (0%)
Заголовок : Canadian SDH
Язык : French
Default : Нет
Forced : Нет
Текст #18
Идентификатор : 21
Формат : UTF-8
Идентификатор кодека : S_TEXT/UTF8
Идентификатор кодека/Информация : UTF-8 Plain Text
Продолжительность : 2 ч. 5 м.
Битрейт : 33 бит/сек
Count of elements : 1256
Размер потока : 30,6 Кбайт (0%)
Язык : Hungarian
Default : Нет
Forced : Нет
Текст #19
Идентификатор : 22
Формат : UTF-8
Идентификатор кодека : S_TEXT/UTF8
Идентификатор кодека/Информация : UTF-8 Plain Text
Продолжительность : 2 ч. 5 м.
Битрейт : 36 бит/сек
Count of elements : 1258
Размер потока : 33,9 Кбайт (0%)
Язык : Icelandic
Default : Нет
Forced : Нет
Текст #20
Идентификатор : 23
Формат : UTF-8
Идентификатор кодека : S_TEXT/UTF8
Идентификатор кодека/Информация : UTF-8 Plain Text
Продолжительность : 2 ч. 5 м.
Битрейт : 38 бит/сек
Count of elements : 1260
Размер потока : 35,3 Кбайт (0%)
Язык : Italian
Default : Нет
Forced : Нет
Текст #21
Идентификатор : 24
Формат : UTF-8
Идентификатор кодека : S_TEXT/UTF8
Идентификатор кодека/Информация : UTF-8 Plain Text
Продолжительность : 2 ч. 5 м.
Битрейт : 31 бит/сек
Count of elements : 1177
Размер потока : 29,1 Кбайт (0%)
Язык : Japanese
Default : Нет
Forced : Нет
Текст #22
Идентификатор : 25
Формат : UTF-8
Идентификатор кодека : S_TEXT/UTF8
Идентификатор кодека/Информация : UTF-8 Plain Text
Продолжительность : 2 ч. 5 м.
Битрейт : 38 бит/сек
Count of elements : 1255
Размер потока : 35,0 Кбайт (0%)
Язык : Korean
Default : Нет
Forced : Нет
Текст #23
Идентификатор : 26
Формат : UTF-8
Идентификатор кодека : S_TEXT/UTF8
Идентификатор кодека/Информация : UTF-8 Plain Text
Продолжительность : 2 ч. 5 м.
Битрейт : 35 бит/сек
Count of elements : 1011
Размер потока : 32,8 Кбайт (0%)
Язык : Dutch
Default : Нет
Forced : Нет
Текст #24
Идентификатор : 27
Формат : UTF-8
Идентификатор кодека : S_TEXT/UTF8
Идентификатор кодека/Информация : UTF-8 Plain Text
Продолжительность : 2 ч. 5 м.
Битрейт : 33 бит/сек
Count of elements : 1261
Размер потока : 31,1 Кбайт (0%)
Язык : Norwegian
Default : Нет
Forced : Нет
Текст #25
Идентификатор : 28
Формат : UTF-8
Идентификатор кодека : S_TEXT/UTF8
Идентификатор кодека/Информация : UTF-8 Plain Text
Продолжительность : 2 ч. 5 м.
Битрейт : 30 бит/сек
Count of elements : 1249
Размер потока : 27,8 Кбайт (0%)
Язык : Polish
Default : Нет
Forced : Нет
Текст #26
Идентификатор : 29
Формат : UTF-8
Идентификатор кодека : S_TEXT/UTF8
Идентификатор кодека/Информация : UTF-8 Plain Text
Продолжительность : 2 ч. 6 м.
Битрейт : 36 бит/сек
Count of elements : 1246
Размер потока : 33,8 Кбайт (0%)
Язык : Portuguese
Default : Нет
Forced : Нет
Текст #27
Идентификатор : 30
Формат : UTF-8
Идентификатор кодека : S_TEXT/UTF8
Идентификатор кодека/Информация : UTF-8 Plain Text
Продолжительность : 2 ч. 5 м.
Битрейт : 36 бит/сек
Count of elements : 1253
Размер потока : 33,5 Кбайт (0%)
Заголовок : Brazilian
Язык : Portuguese
Default : Нет
Forced : Нет
Текст #28
Идентификатор : 31
Формат : UTF-8
Идентификатор кодека : S_TEXT/UTF8
Идентификатор кодека/Информация : UTF-8 Plain Text
Продолжительность : 2 ч. 6 м.
Битрейт : 47 бит/сек
Count of elements : 1621
Размер потока : 43,8 Кбайт (0%)
Заголовок : Brazilian SDH
Язык : Portuguese
Default : Нет
Forced : Нет
Текст #29
Идентификатор : 32
Формат : UTF-8
Идентификатор кодека : S_TEXT/UTF8
Идентификатор кодека/Информация : UTF-8 Plain Text
Продолжительность : 2 ч. 5 м.
Битрейт : 38 бит/сек
Count of elements : 1197
Размер потока : 35,0 Кбайт (0%)
Язык : Romanian
Default : Нет
Forced : Нет
Текст #30
Идентификатор : 33
Формат : UTF-8
Идентификатор кодека : S_TEXT/UTF8
Идентификатор кодека/Информация : UTF-8 Plain Text
Продолжительность : 2 ч. 5 м.
Битрейт : 32 бит/сек
Count of elements : 1257
Размер потока : 29,4 Кбайт (0%)
Язык : Slovak
Default : Нет
Forced : Нет
Текст #31
Идентификатор : 34
Формат : UTF-8
Идентификатор кодека : S_TEXT/UTF8
Идентификатор кодека/Информация : UTF-8 Plain Text
Продолжительность : 2 ч. 5 м.
Битрейт : 35 бит/сек
Count of elements : 949
Размер потока : 32,3 Кбайт (0%)
Язык : Swedish
Default : Нет
Forced : Нет
Текст #32
Идентификатор : 35
Формат : UTF-8
Идентификатор кодека : S_TEXT/UTF8
Идентификатор кодека/Информация : UTF-8 Plain Text
Продолжительность : 2 ч. 5 м.
Битрейт : 36 бит/сек
Count of elements : 1254
Размер потока : 33,4 Кбайт (0%)
Язык : Turkish
Default : Нет
Forced : Нет
Текст #33
Идентификатор : 36
Формат : UTF-8
Идентификатор кодека : S_TEXT/UTF8
Идентификатор кодека/Информация : UTF-8 Plain Text
Продолжительность : 2 ч. 5 м.
Битрейт : 30 бит/сек
Count of elements : 1259
Размер потока : 27,9 Кбайт (0%)
Заголовок : Hong Kong
Язык : Chinese
Default : Нет
Forced : Нет
Текст #34
Идентификатор : 37
Формат : UTF-8
Идентификатор кодека : S_TEXT/UTF8
Идентификатор кодека/Информация : UTF-8 Plain Text
Продолжительность : 2 ч. 5 м.
Битрейт : 34 бит/сек
Count of elements : 1261
Размер потока : 31,3 Кбайт (0%)
Заголовок : Simplified
Язык : Chinese
Default : Нет
Forced : Нет
Текст #35
Идентификатор : 38
Формат : UTF-8
Идентификатор кодека : S_TEXT/UTF8
Идентификатор кодека/Информация : UTF-8 Plain Text
Продолжительность : 2 ч. 5 м.
Битрейт : 30 бит/сек
Count of elements : 1273
Размер потока : 27,7 Кбайт (0%)
Заголовок : Traditional
Язык : Chinese
Default : Нет
Forced : Нет
Меню
01:59:27.417 : en:Credits
[iv-torrents.ru].t189866.torrent
Torrent: Registered [ 2022-06-23 09:02 ] · 82622897E4F1E42A82B8755DC9A964CFAB62F723

Download .torrent

Download

39 KB

Status: checked
Completed: 3 times
Size: 7.64 GB
Оценка:  - (Голосов: 0)
terms.php


Quick Reply

Name:

               
       
     
Heads necessary to send messages to enable JavaScript
Display posts:    

Current time is: 26-Jun 01:13

All times are UTC ± 0


You cannot post new topics in this forum
You can reply to topics in this forum
You cannot edit your posts in this forum
You cannot delete your posts in this forum
You cannot vote in polls in this forum
You cannot attach files in this forum
You can download files in this forum

!ATTENTION!
The site does not give electronic versions of products, and is engaged only in a collecting and cataloguing of the references sent and published at a forum by our readers. If you are the legal owner of any submitted material and do not wish that the reference to it was in our catalogue, contact us and we shall immediately remove her. Files for an exchange on tracker are given by users of a site, and the administration does not bear the responsibility for their maintenance. The request to not fill in the files protected by copyrights, and also files of the illegal maintenance!