Ивановский Торрент трекер
Яндекс.Погода
 

[Quote]
HUNTER

Добытчица / The Breadwinner
Страна: Ирландия, Канада, Люксембург
Жанр: мультфильм, семейный
Продолжительность: 01:33:25
Год выпуска: 2017
Перевод: Любительский (двухголосый закадровый) NewStation (по субтитрам Жени Спицына)
Русские субтитры: есть
Режиссёр: Нора Туми / Nora Twomey
Роли озвучивали: Саара Чодри, Лаара Сэдик, Али Ризви, Нурин Гуламгаус, Кава Ада, Сома Бхатия, Али Казми, Кэйн Махон
Описание: История упрямой девочки, которая переодевается мальчиком для того, чтобы обеспечивать свою семью.
Семпл: http://multi-up.com/1190273
Качество: BDRip 1080p
Формат: MKV
Видео: AVC, 1920x808, 23,976 кадров/сек, ~5187 Кбит/сек
Аудио #1: [RUS] 48 kHz, AC-3, 6ch, ~384 kbps
Аудио #2: [ENG] 48 kHz, DTS, 6ch, ~1509 kbps
Субтитры: Русские, английские

Подробные технические данные

General
Unique ID : 272376311448939199421654205724287425491 (0xCCE9C4F9C413C59DCC34945D7F01DBD3)
Complete name : D:\NewStation\Полный метр\The.Breadwinner.2017.1080p.BDRip.NewStation.mkv
Format : Matroska
Format version : Version 4 / Version 2
File size : 4.62 GiB
Duration : 1 h 33 min
Overall bit rate : 7 084 kb/s
Encoded date : UTC 2018-03-10 23:57:27
Writing application : mkvmerge v19.0.0 ('Brave Captain') 64-bit
Writing library : libebml v1.3.5 + libmatroska v1.4.8
Video
ID : 1
Format : AVC
Format/Info : Advanced Video Codec
Format profile : [email protected]
Format settings : CABAC / 5 Ref Frames
Format settings, CABAC : Yes
Format settings, RefFrames : 5 frames
Codec ID : V_MPEG4/ISO/AVC
Duration : 1 h 33 min
Bit rate : 5 187 kb/s
Width : 1 920 pixels
Height : 808 pixels
Display aspect ratio : 2.40:1
Frame rate mode : Constant
Frame rate : 23.976 FPS
Color space : YUV
Chroma subsampling : 4:2:0
Bit depth : 8 bits
Scan type : Progressive
Bits/(Pixel*Frame) : 0.139
Stream size : 3.39 GiB (73%)
Writing library : x264 core 155 r2901 7d0ff22
Encoding settings : cabac=1 / ref=5 / deblock=1:0:0 / analyse=0x3:0x133 / me=umh / subme=7 / psy=1 / psy_rd=1.00:0.00 / mixed_ref=1 / me_range=16 / chroma_me=1 / trellis=1 / 8x8dct=1 / cqm=0 / deadzone=21,11 / fast_pskip=0 / chroma_qp_offset=-2 / threads=25 / lookahead_threads=4 / sliced_threads=0 / nr=0 / decimate=1 / interlaced=0 / bluray_compat=0 / constrained_intra=0 / bframes=3 / b_pyramid=2 / b_adapt=1 / b_bias=0 / direct=1 / weightb=1 / open_gop=0 / weightp=2 / keyint=250 / keyint_min=23 / scenecut=40 / intra_refresh=0 / rc_lookahead=40 / rc=2pass / mbtree=1 / bitrate=5187 / ratetol=1.0 / qcomp=0.60 / qpmin=0 / qpmax=69 / qpstep=4 / cplxblur=20.0 / qblur=0.5 / ip_ratio=1.40 / aq=1:1.00
Language : English
Default : Yes
Forced : No
Audio #1
ID : 2
Format : AC-3
Format/Info : Audio Coding 3
Codec ID : A_AC3
Duration : 1 h 33 min
Bit rate mode : Constant
Bit rate : 384 kb/s
Channel(s) : 6 channels
Channel positions : Front: L C R, Side: L R, LFE
Sampling rate : 48.0 kHz
Frame rate : 31.250 FPS (1536 SPF)
Bit depth : 16 bits
Compression mode : Lossy
Stream size : 257 MiB (5%)
Title : NewStation
Language : Russian
Service kind : Complete Main
Default : Yes
Forced : No
Audio #2
ID : 3
Format : DTS
Format/Info : Digital Theater Systems
Codec ID : A_DTS
Duration : 1 h 33 min
Bit rate mode : Constant
Bit rate : 1 509 kb/s
Channel(s) : 6 channels
Channel positions : Front: L C R, Side: L R, LFE
Sampling rate : 48.0 kHz
Frame rate : 93.750 FPS (512 SPF)
Bit depth : 24 bits
Compression mode : Lossy
Stream size : 1 008 MiB (21%)
Title : Original
Default : No
Forced : No
Text #1
ID : 4
Format : UTF-8
Codec ID : S_TEXT/UTF8
Codec ID/Info : UTF-8 Plain Text
Duration : 1 h 23 min
Bit rate : 102 b/s
Count of elements : 1209
Stream size : 63.0 KiB (0%)
Title : Женя Спицын
Language : Russian
Default : No
Forced : No
Text #2
ID : 5
Format : UTF-8
Codec ID : S_TEXT/UTF8
Codec ID/Info : UTF-8 Plain Text
Duration : 1 h 30 min
Bit rate : 60 b/s
Count of elements : 1152
Stream size : 40.3 KiB (0%)
Title : Original
Default : No
Forced : No
Menu
00:00:00.000 : en:00:00:00.000
00:05:33.959 : en:00:05:33.959
00:10:59.826 : en:00:10:59.826
00:15:44.610 : en:00:15:44.610
00:20:48.539 : en:00:20:48.539
00:25:10.509 : en:00:25:10.509
00:30:49.598 : en:00:30:49.598
00:35:16.906 : en:00:35:16.906
00:40:06.946 : en:00:40:06.946
00:45:13.961 : en:00:45:13.961
00:50:01.248 : en:00:50:01.248
00:55:13.018 : en:00:55:13.018
01:00:17.280 : en:01:00:17.280
01:06:06.880 : en:01:06:06.880
01:10:09.747 : en:01:10:09.747
01:15:29.525 : en:01:15:29.525
01:20:17.021 : en:01:20:17.021
01:25:54.149 : en:01:25:54.149

Скриншоты



Display posts:    

Current time is: 23-Oct 18:27

All times are UTC ± 0


You cannot post new topics in this forum
You cannot reply to topics in this forum
You cannot edit your posts in this forum
You cannot delete your posts in this forum
You cannot vote in polls in this forum
You cannot attach files in this forum
You cannot download files in this forum

!ATTENTION!
The site does not give electronic versions of products, and is engaged only in a collecting and cataloguing of the references sent and published at a forum by our readers. If you are the legal owner of any submitted material and do not wish that the reference to it was in our catalogue, contact us and we shall immediately remove her. Files for an exchange on tracker are given by users of a site, and the administration does not bear the responsibility for their maintenance. The request to not fill in the files protected by copyrights, and also files of the illegal maintenance!