Российский Торрент трекер
Яндекс.Погода
 

[Quote]
HUNTER

- Страна: Япония
Год выпуска: 2021
Жанр: повседневность
Тип: TV
Продолжительность: >12 эп. по ~3 мин.
Режиссер: Тадзава Усио
Студия: Liden Films-Перевод: MedusaSub | YakuSub Studio-Описание: Эта удивительная история разворачивается одним летом, когда флегматичная Майсэ Хига, перешедшая уже в старшую школу, встречается с Итиро Судзуки. Семья Майсэ держит прибрежный отель, расположенный на Окинаве, и девушка часто помогает родным и стоит за стойкой, принимая прибывших гостей. Однажды в их отель приезжает таинственный юноша, который говорит, что он из Токио и зовут его Итиро Судзуки. С этого знаменательного дня в ничем непримечательной жизни Майсэ начинают происходить необыкновенные вещи.-Информационные ссылки: MAL | AniDB | Shikimori | World Art-Качество: WEBRip
Тип релиза: без хардсаба, без линковки
Формат видео: MKV
Рип: [NC-Raws]
Видео: AVC, 8 bit, 1920x1080, 5 884 kbps, 23.976 fps
Аудио JAP: AAC LC, 315 kbps, 48000 Hz, 2 ch
Субтитры RUS(ext): ASS; 1-2-#1 субтитры: [MedusaSub] [полные]
над субтитрами работали: kys & Liasidra
#2 субтитры: [YakuSub Studio] [полные]
над субтитрами работали: Lulu & Minamikaze-

Список эпизодов

01. Episode 1
02. Episode 2
03. Episode 3

Скриншоты

MediaInfo

Код:
General
Unique ID : 0 (0x0)
Complete name : [NC-Raws] Deji Meets Girl [B-Global WEB-DL 1080p AVC AAC]\[NC-Raws] Deji Meets Girl - 01 [B-Global WEB-DL 1080p AVC AAC].mkv
Format : Matroska
Format version : Version 4
File size : 90.2 MiB
Duration : 2 min 2 s
Overall bit rate : 6 198 kb/s
Description : Packed by Bilibili XCoder v2.0.2
Writing application : no_variable_data
Writing library : no_variable_data / Lavf58.76.100
Video
ID : 1
Format : AVC
Format/Info : Advanced Video Codec
Format profile : [email protected]
Format settings : CABAC / 4 Ref Frames
Format settings, CABAC : Yes
Format settings, Reference frames : 4 frames
Codec ID : V_MPEG4/ISO/AVC
Duration : 2 min 1 s
Bit rate : 5 884 kb/s
Width : 1 920 pixels
Height : 1 080 pixels
Display aspect ratio : 16:9
Frame rate mode : Constant
Frame rate : 23.976 (24000/1001) FPS
Color space : YUV
Chroma subsampling : 4:2:0
Bit depth : 8 bits
Scan type : Progressive
Bits/(Pixel*Frame) : 0.118
Stream size : 85.6 MiB (95%)
Writing library : BiliBili H264 Encoder v1.0
Default : Yes
Forced : No
Color range : Limited
Color primaries : BT.709
Transfer characteristics : BT.709
Matrix coefficients : BT.709
VENDOR_ID : [0][0][0][0]
Audio
ID : 2
Format : AAC LC
Format/Info : Advanced Audio Codec Low Complexity
Codec ID : A_AAC-2
Duration : 2 min 2 s
Bit rate : 315 kb/s
Channel(s) : 2 channels
Channel layout : L R
Sampling rate : 48.0 kHz
Frame rate : 46.875 FPS (1024 SPF)
Compression mode : Lossy
Stream size : 4.58 MiB (5%)
Language : Japanese
Default : Yes
Forced : No
VENDOR_ID : [0][0][0][0]
-


Display posts:    

Current time is: 04-Dec 11:36

All times are UTC ± 0


You cannot post new topics in this forum
You cannot reply to topics in this forum
You cannot edit your posts in this forum
You cannot delete your posts in this forum
You cannot vote in polls in this forum
You cannot attach files in this forum
You cannot download files in this forum

!ATTENTION!
The site does not give electronic versions of products, and is engaged only in a collecting and cataloguing of the references sent and published at a forum by our readers. If you are the legal owner of any submitted material and do not wish that the reference to it was in our catalogue, contact us and we shall immediately remove her. Files for an exchange on tracker are given by users of a site, and the administration does not bear the responsibility for their maintenance. The request to not fill in the files protected by copyrights, and also files of the illegal maintenance!