Дэйгандр / Daigunder / Bakuto Sengen Daigunder / Сезон: 1 / Серии: 1-9, 11-13, 15, 16 из 39 (Яно Хироюки / Yano Hiroyuki) [2002, Япония, США, приключения, меха, комедия, DVDRip-AVC, VHSRip-AVC] Dub (Ren-TV) + Original (Eng) :: Российский Торрент трекер
Российский Торрент трекер
Яндекс.Погода
 

[Quote]
HUNTER

-Дэйгандр / Daigunder / Bakuto Sengen Daigunder- Английское название: Daigunder
Русское название: Дэйгандр
Год выпуска: 2002
Страна: Япония, США
Жанр: приключения, меха, комедия
Продолжительность: ТВ (39 эп.), ~ 23 минуты
Перевод: Профессиональный (Полное Дублирование) Ren-TV
Русские субтитры: Нет
Английские субтитры: Нет-Режиссёр: Яно Хироюки / Yano Hiroyuki
Описание: Акира Акебоно - мальчик, мечтающий управлять командой боевых роботов. Дедушка Акиры конструирует для внука бойцового робота по имени Дейгандр. В команду роботов Акиры также входит Орлиная Стрела, Драймог и Булион. Все они совмещаются с Дейгандером и могут сливаться, образовывая различные комбинации. Успешное выступление команды Акиры привлекает внимание коварного ученого Биг Бэнга, который контролирует злого и опасного робота Гинзан.-Релиз от: -Над релизом работали:
Выражаю огромнейшую благодарность следующим лицам:
HPotter - Предоставил DVDRip'ы.
DodgyEnc - Закодил DVD диски.
Sandy - Предоставил кассеты с записями с канала Ren-TV.
ALEKS KV - работа со звуком, оцифровка, кодирование VHSRip'ов, сведение звука, итоговый муксинг.-Ссылка на остальные раздачи-

В Русском озвучании принимали участие:

Дубляж по заказу Ren-TV

Александр Новиков, Владимир Герасимов, Михаил Тихонов, Ольга Голованова, Ольга Шорохова
-Сэмпл-Доп. Информация:
За основу видео взяты дремучие DVDRip'ы, которые уже много лет никто не раздаёт. Чудом удалось вытащить из глубин интернета. К сожалению, самих дисков на руках нет, да и выпускали походу только первые 9 серий, дальше не двинулось. Остальные серии представлены в виде оцифровок кассет с канала Ren-TV.
Спустя много лет поисков отыскался человек Sandy, который записал 14 серий с канала Ren-TV. Передал мне кассеты на оцифровку и благодаря этому, теперь есть возможность увидеть хотя бы начало американской версии сериала! Показывали мультсериал всего один раз, очень ранним утром по выходным на канале Ren-TV.

-
Качество: DVDRip-AVC (Серии 01-09)
Качество: VHSRip-AVC (Серии 11-13, 15, 16)
Формат видео: x264
Контейнер: MKV
Аудио кодек: AC3, AAC
Видео: x264 8bit 720x576 (4:3) 25.000fps ~2500Kbps (Серии 01-09)
Видео: x264 8bit 720x576 (4:3) 25.000fps ~8100Kbps (Серии 11-13, 15, 16)
Аудио:

  • русская: Dolby AC3 48000Hz ---|DualMono|--- 192Kbps [Ren-TV] (Серии 01-09, 11-13, 15, 16) {Серии 11-13, 15, 16 — Hi-Fi}

  • английская: AAC-LC 48000Hz ---|Stereo|--- 192Kbps [Оригинал] (Серии 01-09)-

    Наличие серий в раздаче

    01. Начало мечты
    02. Первый шаг
    03. Тренеровочная битва
    04. Смешанный матч
    05. Гинзан
    06. Восстание роботов
    07. Робот - есть робот
    08. Команда - это мы!
    09. Мы это уже проходили

    10. Friend or Foe
    11. Битва в модном стиле
    12. Поражение Паровозика
    13. Тайна команды Икс

    14. The Enemy Within
    15. Роботы ссорятся
    16. Шутка короля

    17. Brits, Bots and Betty
    18. A New Friend
    19. Two Bots or Not Two Bots?
    20. Goon With The Wind
    21. Fight or Get Off The Bot
    22. A Battle Down Memory Lane
    23. Fire and Ice
    24. The Stand in the Sand
    25. Maelstrom's Madness
    26. Daigunder My Thumb
    27. The Battle for Ryugu
    28. Maybe the Grass Ain't Greener
    29. Dazed and Kamfused
    30. Teamwork
    31. A Lesson Earned is a Lesson Learned
    32. Doctor Bridget Explains it All
    33. Desperate Trap for Daigunder
    34. Maelstrom vs. Dragon Burst
    35. History of the Title Grosser
    36. Charge! Fight for the Hard Foughted
    37. -
    38. -
    39. -

    Подробные технические данные

    DVDRip

    General
    Unique ID : 95024377405345254259706716698333286498 (0x477D07860C7791EA5E31FF9E3EEA1062)
    Complete name : xxxxxx\[M-KV2501] Daigunder 1x02 Step One [DVDRip].mkv
    Format : Matroska
    Format version : Version 2
    File size : 419 MiB
    Duration : 20 min 37 s
    Overall bit rate : 2 839 kb/s
    Encoded date : UTC 2022-01-04 21:28:13
    Writing application : mkvmerge v49.0.0 ('Sick Of Losing Soulmates') 64-bit
    Writing library : libebml v1.4.0 + libmatroska v1.6.1
    Video
    ID : 1
    Format : AVC
    Format/Info : Advanced Video Codec
    Format profile : [email protected]
    Format settings : CABAC / 4 Ref Frames
    Format settings, CABAC : Yes
    Format settings, Reference frames : 4 frames
    Codec ID : V_MPEG4/ISO/AVC
    Duration : 20 min 37 s
    Bit rate : 2 500 kb/s
    Width : 720 pixels
    Height : 576 pixels
    Display aspect ratio : 4:3
    Original display aspect ratio : 4:3
    Frame rate mode : Constant
    Frame rate : 25.000 FPS
    Standard : PAL
    Color space : YUV
    Chroma subsampling : 4:2:0
    Bit depth : 8 bits
    Scan type : Progressive
    Bits/(Pixel*Frame) : 0.241
    Stream size : 362 MiB (86%)
    Title : Original
    Writing library : x264 core 128
    Encoding settings : cabac=1 / ref=3 / deblock=1:0:0 / analyse=0x3:0x113 / me=hex / subme=7 / psy=1 / psy_rd=1.00:0.00 / mixed_ref=1 / me_range=16 / chroma_me=1 / trellis=1 / 8x8dct=1 / cqm=0 / deadzone=21,11 / fast_pskip=1 / chroma_qp_offset=-2 / threads=1 / lookahead_threads=1 / sliced_threads=0 / nr=0 / decimate=1 / interlaced=0 / bluray_compat=0 / constrained_intra=0 / bframes=3 / b_pyramid=2 / b_adapt=2 / b_bias=0 / direct=1 / weightb=1 / open_gop=0 / weightp=2 / keyint=250 / keyint_min=25 / scenecut=40 / intra_refresh=0 / rc_lookahead=50 / rc=abr / mbtree=1 / bitrate=2500 / ratetol=1.0 / qcomp=0.60 / qpmin=3 / qpmax=69 / qpstep=4 / ip_ratio=1.40 / aq=1:1.00
    Language : English
    Default : Yes
    Forced : No
    Color range : Limited
    Color primaries : BT.601 PAL
    Transfer characteristics : BT.709
    Matrix coefficients : BT.601
    Audio #1
    ID : 2
    Format : AC-3
    Format/Info : Audio Coding 3
    Commercial name : Dolby Digital
    Codec ID : A_AC3
    Duration : 20 min 37 s
    Bit rate mode : Constant
    Bit rate : 192 kb/s
    Channel(s) : 2 channels
    Channel layout : L R
    Sampling rate : 48.0 kHz
    Frame rate : 31.250 FPS (1536 SPF)
    Compression mode : Lossy
    Stream size : 28.3 MiB (7%)
    Title : Ren-TV
    Language : Russian
    Service kind : Complete Main
    Default : Yes
    Forced : No
    Audio #2
    ID : 3
    Format : AAC LC
    Format/Info : Advanced Audio Codec Low Complexity
    Codec ID : A_AAC-2
    Duration : 20 min 37 s
    Bit rate : 192 kb/s
    Channel(s) : 2 channels
    Channel layout : L R
    Sampling rate : 48.0 kHz
    Frame rate : 46.875 FPS (1024 SPF)
    Compression mode : Lossy
    Stream size : 28.2 MiB (7%)
    Title : Original
    Language : English
    Default : No
    Forced : No

    VHSRip

    General
    Unique ID : 304068209743348682633220096800783128289 (0xE4C16832FE3DA948C4DCB5EE3B64D6E1)
    Complete name : xxxxxxxxx\[M-KV2501] Daigunder 1x11 Battling with Style [VHSRip].mkv
    Format : Matroska
    Format version : Version 2
    File size : 1.18 GiB
    Duration : 20 min 27 s
    Overall bit rate : 8 294 kb/s
    Encoded date : UTC 2022-01-04 18:57:44
    Writing application : mkvmerge v49.0.0 ('Sick Of Losing Soulmates') 64-bit
    Writing library : libebml v1.4.0 + libmatroska v1.6.1
    Video
    ID : 1
    Format : AVC
    Format/Info : Advanced Video Codec
    Format profile : [email protected]
    Format settings : CABAC / 16 Ref Frames
    Format settings, CABAC : Yes
    Format settings, Reference frames : 16 frames
    Codec ID : V_MPEG4/ISO/AVC
    Duration : 20 min 27 s
    Bit rate : 8 100 kb/s
    Width : 720 pixels
    Height : 576 pixels
    Display aspect ratio : 4:3
    Original display aspect ratio : 4:3
    Frame rate mode : Constant
    Frame rate : 25.000 FPS
    Standard : PAL
    Color space : YUV
    Chroma subsampling : 4:2:0
    Bit depth : 8 bits
    Scan type : MBAFF
    Scan type, store method : Interleaved fields
    Scan order : Top Field First
    Bits/(Pixel*Frame) : 0.781
    Stream size : 1.16 GiB (98%)
    Title : Original
    Writing library : x264 core 164 r3065 ae03d92
    Encoding settings : cabac=1 / ref=16 / deblock=1:-3:-3 / analyse=0x3:0x133 / me=umh / subme=11 / psy=1 / psy_rd=1.00:0.00 / mixed_ref=1 / me_range=48 / chroma_me=1 / trellis=2 / 8x8dct=1 / cqm=0 / deadzone=21,11 / fast_pskip=0 / chroma_qp_offset=-2 / threads=18 / lookahead_threads=4 / sliced_threads=0 / nr=0 / decimate=1 / interlaced=tff / bluray_compat=0 / constrained_intra=0 / bframes=16 / b_pyramid=2 / b_adapt=2 / b_bias=0 / direct=3 / weightb=1 / open_gop=0 / weightp=0 / keyint=250 / keyint_min=25 / scenecut=40 / intra_refresh=0 / rc_lookahead=70 / rc=crf / mbtree=1 / crf=16.0 / qcomp=0.60 / qpmin=0 / qpmax=69 / qpstep=4 / ip_ratio=1.40 / aq=1:0.90
    Language : English
    Default : Yes
    Forced : No
    Audio
    ID : 2
    Format : AC-3
    Format/Info : Audio Coding 3
    Commercial name : Dolby Digital
    Codec ID : A_AC3
    Duration : 20 min 27 s
    Bit rate mode : Constant
    Bit rate : 192 kb/s
    Channel(s) : 2 channels
    Channel layout : L R
    Sampling rate : 48.0 kHz
    Frame rate : 31.250 FPS (1536 SPF)
    Compression mode : Lossy
    Stream size : 28.1 MiB (2%)
    Title : Ren-TV
    Language : Russian
    Service kind : Complete Main
    Default : Yes
    Forced : No

    Скриншоты

    DVDRip (Серии 01-09)

    VHSRip (Серии 11-13, 15, 16)

    Правила, условия распространения (к прочтению обязательно)

    Внимание, данная раздача содержит эксклюзивный контент от M-KV2501. Использовать контент без баннера группы: и указания первоначального источника - ЗАПРЕЩЕНО!


  • Display posts:    

    Current time is: 29-Jan 07:51

    All times are UTC ± 0


    You cannot post new topics in this forum
    You cannot reply to topics in this forum
    You cannot edit your posts in this forum
    You cannot delete your posts in this forum
    You cannot vote in polls in this forum
    You cannot attach files in this forum
    You cannot download files in this forum

    !ATTENTION!
    The site does not give electronic versions of products, and is engaged only in a collecting and cataloguing of the references sent and published at a forum by our readers. If you are the legal owner of any submitted material and do not wish that the reference to it was in our catalogue, contact us and we shall immediately remove her. Files for an exchange on tracker are given by users of a site, and the administration does not bear the responsibility for their maintenance. The request to not fill in the files protected by copyrights, and also files of the illegal maintenance!