Ивановский Торрент трекер
Яндекс.Погода
 

[Quote]
HUNTER

Чтобы выжить
Страна: Россия
Жанр: Боевик
Год выпуска: 1992
Продолжительность: 01:50:54
Перевод: Не требуется
Субтитры: русские
Оригинальная аудиодорожка: русский
Режиссер: Всеволод Плоткин
В ролях: Владимир Меньшов, Сергей Векслер, Александр Розенбаум, Дмитрий Волков (в титрах Митя Волков), Андрей Щербович-Вечер, Яков Голяков, Мурад Алиев, Анвар Кенджаев, Оксана Салехова, Юрий Горобец, Арсен Амаспюрянц, Анвар Кемджаев, Анвар Азимов, Вячеслав Ушанов, Михаил Богдасаров, Яков Гольдштейн, Д. Вербицкий, Ю. Генжаев, Л. Дувакин, Алексей Кошевой, В. Марков, Алексей Паламарчук, Ш. Шукуров, Шамситдин Юллиев
Описание: Эмиссар бывшей «партийной мафии» по кличке «Джафар» готовит и осуществляет ряд провокаций и террористических актов на окраинах страны для создания предпосылок государственного переворота. В ходе налета на один из армейских оружейных складов ранен проводник.
Бандитам срочно нужно переправить через афганскую границу караван с оружием. В качестве проводника Джафар пытается использовать бывшего офицера — «афганца» Олега, для чего бандиты берут в заложники его сына. Олег и его армейский друг Николай, используя весь свой опыт войны в горах, вступают в неравную смертельную борьбу с бандой…
Рекламный трейлер
Сэмпл: http://multi-up.com/1188469
Тип релиза: BDRip 1080p
Контейнер: MKV
Видео: H.264/AVC, 1920х1036, 1.85:1, 4770 Кбит/сек, 23.976
Аудио: AC-3, 2.0, 48 kHz 128 kbps

MediaInfo

Формат : Matroska
Версия формата : Version 2
Размер файла : 3,78 Гбайт
Продолжительность : 1 ч. 50 м.
Общий поток : 4878 Кбит/сек
Видео
Идентификатор : 1
Формат : AVC
Формат/Информация : Advanced Video Codec
Профиль формата : [email protected]
Настройки формата : CABAC / 1 Ref Frames
Параметр CABAC формата : Да
Параметр RefFrames формата : 1 кадр
Параметр GOP формата : M=1, N=24
Идентификатор кодека : V_MPEG4/ISO/AVC
Продолжительность : 1 ч. 50 м.
Вид битрейта : Постоянный
Битрейт : 4770 Кбит/сек
Ширина : 1920 пикселей
Высота : 1036 пикселей
Соотношение сторон : 1,85:1
Режим частоты кадров : Постоянный
Частота кадров : 23,976 (24000/1001) кадра/сек
Цветовое пространство : YUV
Субдискретизация насыщенности : 4:2:0
Битовая глубина : 8 бит
Тип развёртки : Прогрессивная
Бит/(Пиксели*Кадры) : 0.100
Размер потока : 3,66 Гбайт (97%)
Default : Да
Forced : Нет
Цветовой диапазон : Limited
Основные цвета : BT.709
Характеристики трансфера : BT.709
Коэффициенты матрицы : BT.709
Аудио
Идентификатор : 2
Формат : AC-3
Формат/Информация : Audio Coding 3
Идентификатор кодека : A_AC3
Продолжительность : 1 ч. 50 м.
Вид битрейта : Постоянный
Битрейт : 128 Кбит/сек
Каналы : 2 канала
Расположение каналов : Front: L R
Частота : 48,0 КГц
Частота кадров : 31,250 кадров/сек (1536 SPF)
Битовая глубина : 16 бит
Метод сжатия : С потерями
Размер потока : 102 Мбайт (3%)
Язык : English
ServiceKind/String : Complete Main
Default : Да
Forced : Нет
Текст
Идентификатор : 3
Формат : PGS
Идентификатор кодека : S_HDMV/PGS
Идентификатор кодека/Информация : Picture based subtitle format used on BDs/HD-DVDs
Продолжительность : 1 ч. 47 м.
Битрейт : 23,6 Кбит/сек
ElementCount : 2824
Размер потока : 18,2 Мбайт (0%)
Язык : Russian
Default : Нет
Forced : Нет

Скриншоты

Интересные факты

Александра Розенбаума, исполнившего роль Джафара, озвучил Виктор Проскурин.
Горная часть фильма снималась в Таджикистане (возле Педжикента), равнинная - в Узбекистане (Бухара, Самарканд). Пустынную часть снимали в Туркмении.
Собственно, BDRip с Blu-Ray диска американского издания, вышедшего в мае 2017 года. В американском варианте именуется "Red Mob" - "Красная мафия". Титры на английском, звуковая дорожка и субтитры на русском. Всех с 23 февраля


Display posts:    

Current time is: 16-Oct 12:09

All times are UTC ± 0


You cannot post new topics in this forum
You cannot reply to topics in this forum
You cannot edit your posts in this forum
You cannot delete your posts in this forum
You cannot vote in polls in this forum
You cannot attach files in this forum
You cannot download files in this forum

!ATTENTION!
The site does not give electronic versions of products, and is engaged only in a collecting and cataloguing of the references sent and published at a forum by our readers. If you are the legal owner of any submitted material and do not wish that the reference to it was in our catalogue, contact us and we shall immediately remove her. Files for an exchange on tracker are given by users of a site, and the administration does not bear the responsibility for their maintenance. The request to not fill in the files protected by copyrights, and also files of the illegal maintenance!