Чокнутый / Bonkers / Сезон: 1-4 / Серии: 65 из 65 (Джим Каммингс, Дуэйн Капицци / Jim Cummings, Duane Capizzi) [1993, США, Мультипликационный сериал, приключения, комедия, WEB-DL] Dub РТР :: Российский Торрент трекер
Российский Торрент трекер
Яндекс.Погода
 

[Quote]
HUNTER

Чокнутый / Bonkers
Страна: CША
Жанр: Мультипликационный сериал, приключения, комедия
Продолжительность серии: ~ 22 мин/серия
Год выпуска: 1993
Перевод: Профессиональный (дублированный, РТР 1995-96)
Русские субтитры: нет
Режиссёр: Джим Каммингс, Дуэйн Капицци / Jim Cummings, Duane Capizzi
Роли озвучивали:
Сергей Вещев - Чокнутый
Дмитрий Назаров - Счастливчик Пикель
Людмила Гнилова - Мерилин Пикель, Диландра «Дил» Пикель, Оленёнок
Рогволд Суховерко - Леонард Канифки
Владимир Радченко - Шалтай
Наталья Защипина - Миранда Райт, Мадам Лили
Борис Кумаритов - Сержант Фрэнсис Грейтинг, Мигалка, Ворчун и др.
Всеволод Кузнецов - Нервный
Александр Воеводин - Ящерица
Описание: Идея сериала состоит в том, что Чокнутый Рыжая Рысь (Bonkers D. Bobcat), антропоморфный рыжий рысёнок, популярная мультяшная кинозвезда (согласно легенде мира «Чокнутого», он снимался в мультсериале He's Bonkers, который был частью передачи Raw Toonage), ушёл из шоу-бизнеса и стал полицейским. Его назначили стажёром у детектива Счастливчика Пикеля, мрачного и сварливого человека, ненавидящего мультяшек (возможно, прототипом послужил Эдди Валиант из «Кто подставил кролика Роджера»). На протяжении всего сериала, оба работали вместе, раскрывая преступления в Голливуде, штат Калифорния. Чокнутый неоднократно пытался заслужить похвалу Пикеля, но, как правило, всегда только мешал своими проделками. После нескольких лет работы с Чокнутым, Пикеля перевели в Вашингтон, округ Колумбия, работать в ФБР. С одной стороны, Счастливчик был рад наконец избавиться от Чокнутого, но с другой стороны, он уже успел привязаться к озорному мультяшке. Чокнутому назначили нового напарника, привлекательную сержанта Миранду Райт, которая тоже человек, но намного более терпелива и снисходительна к его проделкам, чем Пикель.
Список серий:
01 - Чокнутый появляется (Going Bonkers, Part 1)
02 - Чокнутый исчезает (Going Bonkers, Part 2)
03 - Всё дело в кошельке (In the Bag)
04 - Игрушки бывают тёплыми? (Is Toon Fur Really Warm?)
05 - Волк в овечьей шкуре (The Cheap Sheep Sweep)
06 - Не видеть и не слышать Чокнутого (Hear No Bonkers, See No Bonkers)
07 - Вызываю все машины (Calling all Cars)
08 - Поющий поросёнок (Tune Pig)
09 - Шалтай-сапёр (Fall-Apart Bomb Squad)
10 - Будьте здоровы (Out of Sight, Out of Toon)
11 - Тяжело в учении (Basic Spraining)
12 - Хомяк-друг человека (Hamster Houseguest)
13 - Просто кино! (I Ought to be in Toons)
14 - Разноцветная история (Color me Piquel)
15 - Педагогическая поэма (Once in a Blue Toon)
16 - Тэдди (In Toons we Trust)
17 - Последняя рецензия (The Final Review)
18 - Мультилунатик (Luna-Toons)
19 - Властелин времени (The Day the Toon Stood Still)
20 - Лыжный патруль / Чокнутый в космосе / Прыгающая песня / Куда пропадают кошки и собаки (Ski Patrol / Bonkers in Space / The Rubber Room Song / Draining Cats and Dogs)
21 - Парк Шалтая (Fall Apart Land)
22 - Могучий мамонт (A Wooley Bully)
23 - Будет ли прогноз погоды? (Weather or Not)
24 - Под подозрением (Stay Tooned)
25 - Секретный рецепт (Hand over the Dough)
26 - Привидение (The Dimming)
27 - Представь себе (Imagine That)
28 - Хороший, плохой и Канифки (The Good, the Bad, and the Kanifky)
29 - Когда папа занят (Stand-In Dad)
30 - Никогда не плачь, поросёнок (Never Cry Pig)
31 - Сюрпризы в хлопьях (Cereal Surreal)
32 - Время расплаты (Time Wounds All Heels)
33 - Новые охотники за привидениями (Poltertoon)
34 - Звезда экрана (The Greatest Story Never Told)
35 - В поисках огня / В гостях хорошо / Бим женится / Праздничный обед (Quest for Firewood / Goldjitters And The Three Bobcats / Get Me to the Church on Time / Gobble Gobble Bonkers)
36 - Бандит в маске (Toon with No Name)
37 - Обвиняется мультяшка (Frame that Toon)
38 - Спасите мультфильм (Seems Like Old Toons)
39 - Жертва стресса (Stressed to Kill)
40 - На войне как на войне / Ах, мультяшка! Мой мультяшка / Приключения с лопаточкой / Шерлок Чокнутый (Get Me a Pizza / Oh Cartoon! My Cartoon / Spatula Party / Sheerluck Bonkers)
41 - Как поймать горностая (Get Wacky)
42 - Счастливчики часов не наблюдают (A Fine Kettle of Toons)
43 - Вернись, малыш! (The Comeback Kid)
44 - Ирония судьбы или ночь перед Рождеством (Miracle in the 34th. Precinc)
45 - Френк-бомбометатель (New Partners on the Block)
46 - Разносчик цветов / Если / Собачка Ворчуна / Чокнутый-курьер (Petal to the Metal / If / Dogzapoppin / TrailMix Bonkers)
47 - Любовь с первого взгляда (Love Stuck)
48 - Фальшивомонетчица (Witless for the Prosecution)
49 - Откуда берутся дети? (The Stork Exchange)
50 - Хотите стать мультяшкой (Toon for a Day)
51 - Охотники за бриллиантами (Trains, Toons and Toon Trains)
52 - Волшебная сила воспитания (Of Mice and Menace)
53 - Чокнутый в Токио (Tokyo Bonkers)
54 - Как стать звездой (Springtime for the Iguana)
55 - Украденный смех (The Toon that Ate Hollywood)
56 - Звезда Балбеса (Dog Day AfterToon)
57 - Сёстры-соперницы (Quibbling Rivalry)
58 - 29-я страница (The 29th. Page)
59 - Что тебе снится, Чокнутый (Do Toons Dream of Animated Sheep?)
60 - Местонахождение наковален (A Fistful of Anvils)
61 - Что читаешь, то и получаешь (What you Read is What you Get)
62 - Чокнутый — Дон Жуан (Casa-Bonkers)
63 - Тайна тринадцатого павильона (Cartoon Cornered)
64 - А ты веришь в привидения? (When the Spirit Moves You)
65 - Чокнутый заболел (Bobcat Fever)
Доп. информация: Видео нашёл на зарубежном трекере. Звук взят со спутниковой трансляции по СТС.
Семпл: http://multi-up.com/1294609
Качество: WEB-DL
Формат: MKV
Видео: AVC, 640x480, 4:3, 25 fps, ~3000 kbps
Аудио 1: AC3, 48000 Гц, 2 ch, 224 kbps (русский)
Аудио 2: AAC, 48000 Гц, 2 ch, 128 kbps (английский)
Субтитры: английские

Подробные технические данные

General
Unique ID : 203226758456634768038020091744277087160 (0x98E40CCA427D5836DC19B6B7F365C3B8)
Complete name : E:\Temp\Чокнутый (WEB-DL)\08 - Поющий поросёнок.mkv
Format : Matroska
Format version : Version 4
File size : 545 MiB
Duration : 21 min 51 s
Overall bit rate mode : Variable
Overall bit rate : 3 484 kb/s
Encoded date : UTC 2022-06-20 11:37:36
Writing application : mkvmerge v65.0.0 ('Too Much') 64-bit
Writing library : libebml v1.4.2 + libmatroska v1.6.4
Video
ID : 1
Format : AVC
Format/Info : Advanced Video Codec
Format profile : [email protected]
Format settings : CABAC / 4 Ref Frames
Format settings, CABAC : Yes
Format settings, Reference : 4 frames
Codec ID : V_MPEG4/ISO/AVC
Duration : 21 min 51 s
Bit rate mode : Variable
Bit rate : 3 126 kb/s
Maximum bit rate : 4 500 kb/s
Width : 640 pixels
Height : 480 pixels
Display aspect ratio : 4:3
Original display aspect rat : 4:3
Frame rate mode : Constant
Frame rate : 25.000 FPS
Color space : YUV
Chroma subsampling : 4:2:0
Bit depth : 8 bits
Scan type : Progressive
Bits/(Pixel*Frame) : 0.407
Stream size : 489 MiB (90%)
Default : Yes
Forced : No
Color range : Limited
Color primaries : BT.709
Transfer characteristics : BT.709
Matrix coefficients : BT.709
Audio #1
ID : 2
Format : AC-3
Format/Info : Audio Coding 3
Commercial name : Dolby Digital
Codec ID : A_AC3
Duration : 21 min 51 s
Bit rate mode : Constant
Bit rate : 224 kb/s
Channel(s) : 2 channels
Channel layout : L R
Sampling rate : 48.0 kHz
Frame rate : 31.250 FPS (1536 SPF)
Compression mode : Lossy
Stream size : 35.0 MiB (6%)
Title : PTP
Language : Russian
Service kind : Complete Main
Default : Yes
Forced : No
Audio #2
ID : 3
Format : AAC LC
Format/Info : Advanced Audio Codec Low Complexity
Codec ID : A_AAC-2
Duration : 21 min 51 s
Bit rate : 132 kb/s
Channel(s) : 2 channels
Channel layout : L R
Sampling rate : 48.0 kHz
Frame rate : 46.875 FPS (1024 SPF)
Compression mode : Lossy
Stream size : 20.5 MiB (4%)
Language : English
Default : No
Forced : No
Text
ID : 4
Format : UTF-8
Codec ID : S_TEXT/UTF8
Codec ID/Info : UTF-8 Plain Text
Duration : 21 min 21 s
Bit rate : 88 b/s
Count of elements : 484
Stream size : 13.8 KiB (0%)
Title : SDH
Language : English
Default : No
Forced : No

Скриншоты

Предыдущие и альтернативные раздачи


Display posts:    

Current time is: 26-Jun 03:00

All times are UTC ± 0


You cannot post new topics in this forum
You cannot reply to topics in this forum
You cannot edit your posts in this forum
You cannot delete your posts in this forum
You cannot vote in polls in this forum
You cannot attach files in this forum
You cannot download files in this forum

!ATTENTION!
The site does not give electronic versions of products, and is engaged only in a collecting and cataloguing of the references sent and published at a forum by our readers. If you are the legal owner of any submitted material and do not wish that the reference to it was in our catalogue, contact us and we shall immediately remove her. Files for an exchange on tracker are given by users of a site, and the administration does not bear the responsibility for their maintenance. The request to not fill in the files protected by copyrights, and also files of the illegal maintenance!