Ивановский Торрент трекер
Яндекс.Погода
 

[Quote]
HUNTER

Царство Зелёной Поляны / Królestwo Zielonei Polany
Страна: Польша
Жанр: мультфильм
Продолжительность: 01:05:04
Год выпуска: 1994
Перевод: Профессиональный (дублированный)
Русские субтитры: нет
Режиссёр: Кшиштоф Киверский / Krzystof Kiwerski
Описание: Невоспитанный мальчик Марек, придя в лес, порушил муравейник, порезал дерево и чуть не убил паука-крестовика. За эти проделки местный волшебник уменьшил его самого до размеров насекомого. В королевстве Зелёной Поляны Марека ждёт много приключений: он работает в муравейнике, спасает тонущего Майского Жука, помогает Божьей Коровке... И всё это время Мареку строит козни разозлённый Паук-Крестовик на пару со своим глуповатым племянником.
Семпл: https://radikal.ru/video/mQ1f0kj54ij
Качество: WEBRip
Формат: AVI
Видео: 1477 kbps, 624х480 (4:3), 25.000 fps, MPEG-4 Visual (XviD)
Аудио: 128 kbps, 44.1 kHz, 2 channels, MPEG Audio (MP3)
Субтитры: отсутствуют

Подробные технические данные

General
Complete name : Krolestwo zielonei polany (1994).avi
Format : AVI
Format/Info : Audio Video Interleave
File size : 752 MiB
Duration : 1h 5mn
Overall bit rate : 1 615 Kbps
Writing application : VirtualDubMod 1.5.10.2 (build 2540/release)
Writing library : VirtualDubMod build 2540/release
Video
ID : 0
Format : MPEG-4 Visual
Format profile : Advanced [email protected]
Format settings, BVOP : 2
Format settings, QPel : No
Format settings, GMC : No warppoints
Format settings, Matrix : Default (H.263)
Codec ID : XVID
Codec ID/Hint : XviD
Duration : 1h 5mn
Bit rate : 1 477 Kbps
Width : 624 pixels
Height : 480 pixels
Display aspect ratio : 4:3
Frame rate : 25.000 fps
Color space : YUV
Chroma subsampling : 4:2:0
Bit depth : 8 bits
Scan type : Progressive
Compression mode : Lossy
Bits/(Pixel*Frame) : 0.197
Stream size : 688 MiB (91%)
Writing library : XviD 73
Audio
ID : 1
Format : MPEG Audio
Format version : Version 1
Format profile : Layer 3
Codec ID : 55
Codec ID/Hint : MP3
Duration : 1h 5mn
Bit rate mode : Constant
Bit rate : 128 Kbps
Channel(s) : 2 channels
Sampling rate : 44.1 KHz
Compression mode : Lossy
Stream size : 59.6 MiB (8%)
Alignment : Split accross interleaves
Interleave, duration : 40 ms (1.00 video frame)
Interleave, preload duration : 500 ms

Скриншоты



Display posts:    

Current time is: 21-Oct 18:46

All times are UTC ± 0


You cannot post new topics in this forum
You cannot reply to topics in this forum
You cannot edit your posts in this forum
You cannot delete your posts in this forum
You cannot vote in polls in this forum
You cannot attach files in this forum
You cannot download files in this forum

!ATTENTION!
The site does not give electronic versions of products, and is engaged only in a collecting and cataloguing of the references sent and published at a forum by our readers. If you are the legal owner of any submitted material and do not wish that the reference to it was in our catalogue, contact us and we shall immediately remove her. Files for an exchange on tracker are given by users of a site, and the administration does not bear the responsibility for their maintenance. The request to not fill in the files protected by copyrights, and also files of the illegal maintenance!