Ивановский Торрент трекер
Яндекс.Погода
 

[Quote]
HUNTER

Бункер / Der Untergang
Страна: Германия, Италия, Австрия
Жанр: драма, военный, история, биография
Год выпуска: 2004
Продолжительность: 02:35:11
Перевод 1: Профессиональный (многоголосый закадровый) R5
Перевод 2: Профессиональный (многоголосый закадровый) D2Lab
Перевод 3: Авторский (одноголосый закадровый) С. Рябов
Субтитры: русские, английские, немецкие
Оригинальная аудиодорожка: немецкий
Режиссер: Оливер Хиршбигель / Oliver Hirschbiegel
В ролях: Бруно Ганц, Александра Мария Лара, Коринна Харфух, Ульрих Маттес, Юлиане Кёлер, Хайно Ферх, Кристиан Беркель, Маттиас Хабих, Томас Кречманн, Михаэль Мендль
Описание: Апрель 1945 года. Советские войска сжимают кольцо вокруг столицы Третьего рейха — Берлина. Перед лицом неминуемого поражения нацистская верхушка ищет спасение в секретном бункере, не желая покидать обезумевшего фюрера. Отвергнув предложения о побеге, Гитлер утверждает, что победа близка. Он приказывает сравнять Германию с землей и обсуждает детали своего самоубийства. Последнее убежище палачей пронизано агонией и страхом. И лишь те, кто выйдут живыми из этого бетонного ада, смогут поведать историю о последних минутах жизни и мрачном падении диктатора и его режима.
Немного истории:
Адольф Гитлер совершил самоубийство 30 апреля 1945 года из огнестрельного оружия в своем Фюрербункере в Берлине. Его жена Ева Браун также совершила самоубийство вместе с ним, приняв цианистый калий. В тот же день, в соответствии с ранее оставленной инструкцией Гитлера, их останки вынесли по лестнице через запасной выход бункера, облили бензином и подожгли в саду канцелярии рейха за пределами бункера. Записи в советских архивах утверждают, что их сожженные останки были найдены и перезахоронены на полигоне НКВД под Магдебургом, а позднее эксгумированы, кремированы и рассеяны над рекой.

Сэмпл: https://yadi.sk/i/XQ72Ut1C3Stduc
Тип релиза: BDRip 720p
Контейнер: MKV
Видео: 1280x720 (16:9), 23.976 fps, AVC, ~8580 Kbps, 0.388 bits/pixel
Аудио 1: Russian, 48.0 KHz, AC3, 6 ch, 640 Kbps - Многоголосый закадровый - R5
Аудио 2: Russian, 48.0 KHz, DTS, 6 ch, 755 Kbps - Многоголосый закадровый - [D2Lab] DTS 5.1 @ 768 kbps
Аудио 3: Ukrainian, 48.0 KHz, AC3, 6 ch, 448 Kbps - Многоголосый закадровый - Цікава ідея
Аудио 4: Russian, 48.0 KHz, AC3, 6 ch, 448 Kbps - AC3 5.1 @ 448 kbps - AVO, S.Ryabov
Аудио 5: German, 48.0 KHz, DTS, 6 ch, 1510 Kbps - DTS 5.1 1536 kbps
Формат субтитров: softsub (SRT)

MediaInfo

Общее
Уникальный идентификатор : 222220664278733456067481849181791376075 (0xA72E24A61B9774BFA45083586D28D2CB)
Полное имя : D:/Der.Untergang.2004.720p.BluRay.3xRus.Ukr.Ger.mkv
Формат : Matroska
Версия формата : Version 4 / Version 2
Размер файла : 13,4 Гбайт
Продолжительность : 2 ч. 35 м.
Общий поток : 12,4 Мбит/сек
Название фильма : Der Untergang
Дата кодирования : UTC 2018-03-01 04:53:54
Программа кодирования : mkvmerge v7.9.0 ('Birds') 64bit
Библиотека кодирования : libebml v1.3.1 + libmatroska v1.4.2
Attachments : CronosPro-SemiboldIt.ttf / CronosPro-Bold.ttf / CronosPro-Semibold.ttf / TCCEB.TTF
Видео
Идентификатор : 1
Формат : AVC
Формат/Информация : Advanced Video Codec
Профиль формата : [email protected]
Параметр CABAC формата : Да
Параметр RefFrames формата : 12 кадров
Идентификатор кодека : V_MPEG4/ISO/AVC
Продолжительность : 2 ч. 35 м.
Битрейт : 8580 Кбит/сек
Ширина : 1280 пикселей
Высота : 720 пикселей
Соотношение сторон : 16:9
Режим частоты кадров : Постоянный
Частота кадров : 23,976 (24000/1001) кадра/сек
Цветовое пространство : YUV
Субдискретизация насыщенности : 4:2:0
Битовая глубина : 8 бит
Тип развёртки : Прогрессивная
Бит/(Пиксели*Кадры) : 0.388
Размер потока : 9,30 Гбайт (69%)
Библиотека кодирования : x264 core 67 r1140 37424f8
Настройки программы : cabac=1 / ref=12 / deblock=1:-6:-6 / analyse=0x1:0x131 / me=umh / subme=9 / psy_rd=1.7:0.1 / mixed_ref=1 / me_range=24 / chroma_me=1 / trellis=2 / 8x8dct=0 / cqm=2 / deadzone=21,11 / chroma_qp_offset=-3 / threads=3 / nr=0 / decimate=0 / mbaff=0 / bframes=9 / b_pyramid=1 / b_adapt=2 / b_bias=0 / direct=3 / wpredb=1 / keyint=250 / keyint_min=25 / scenecut=40 / rc=2pass / bitrate=8580 / ratetol=1.0 / qcomp=0.60 / qpmin=10 / qpmax=51 / qpstep=4 / cplxblur=20.0 / qblur=0.5 / ip_ratio=1.40 / pb_ratio=1.30 / aq=1:0.70
Язык : German
Default : Да
Forced : Нет
Аудио #1
Идентификатор : 2
Формат : AC-3
Формат/Информация : Audio Coding 3
Параметр Endianness формата : Big
Идентификатор кодека : A_AC3
Продолжительность : 2 ч. 35 м.
Вид битрейта : Постоянный
Битрейт : 640 Кбит/сек
Каналы : 6 каналов
Расположение каналов : Front: L C R, Side: L R, LFE
Частота : 48,0 КГц
Частота кадров : 31,250 кадров/сек (1536 SPF)
Битовая глубина : 16 бит
Метод сжатия : С потерями
Размер потока : 710 Мбайт (5%)
Заголовок : Многоголосый закадровый - R5
Язык : Russian
ServiceKind/String : Complete Main
Default : Да
Forced : Нет
Аудио #2
Идентификатор : 3
Формат : DTS
Формат/Информация : Digital Theater Systems
Режим : 16
Параметр Endianness формата : Big
Идентификатор кодека : A_DTS
Продолжительность : 2 ч. 35 м.
Вид битрейта : Постоянный
Битрейт : 768 Кбит/сек
Каналы : 6 каналов
Расположение каналов : Front: L C R, Side: L R, LFE
Частота : 48,0 КГц
Частота кадров : 93,750 кадра/сек (512 SPF)
Битовая глубина : 24 бит
Метод сжатия : С потерями
Размер потока : 852 Мбайт (6%)
Заголовок : Многоголосый закадровый - [D2Lab] DTS 5.1 @ 768 kbps
Язык : Russian
Default : Нет
Forced : Нет
Аудио #3
Идентификатор : 4
Формат : AC-3
Формат/Информация : Audio Coding 3
Параметр Endianness формата : Big
Идентификатор кодека : A_AC3
Продолжительность : 2 ч. 35 м.
Вид битрейта : Постоянный
Битрейт : 448 Кбит/сек
Каналы : 6 каналов
Расположение каналов : Front: L C R, Side: L R, LFE
Частота : 48,0 КГц
Частота кадров : 31,250 кадров/сек (1536 SPF)
Битовая глубина : 16 бит
Метод сжатия : С потерями
Размер потока : 497 Мбайт (4%)
Заголовок : Многоголосый закадровый - Цікава ідея
Язык : Ukrainian
ServiceKind/String : Complete Main
Default : Нет
Forced : Нет
Аудио #4
Идентификатор : 5
Формат : AC-3
Формат/Информация : Audio Coding 3
Параметр Endianness формата : Big
Идентификатор кодека : A_AC3
Продолжительность : 2 ч. 35 м.
Вид битрейта : Постоянный
Битрейт : 448 Кбит/сек
Каналы : 6 каналов
Расположение каналов : Front: L C R, Side: L R, LFE
Частота : 48,0 КГц
Частота кадров : 31,250 кадров/сек (1536 SPF)
Битовая глубина : 16 бит
Метод сжатия : С потерями
Размер потока : 497 Мбайт (4%)
Заголовок : Авторский - С. Рябов
Язык : Russian
ServiceKind/String : Complete Main
Default : Нет
Forced : Нет
Аудио #5
Идентификатор : 6
Формат : DTS
Формат/Информация : Digital Theater Systems
Режим : 16
Параметр Endianness формата : Big
Идентификатор кодека : A_DTS
Продолжительность : 2 ч. 35 м.
Вид битрейта : Постоянный
Битрейт : 1510 Кбит/сек
Каналы : 6 каналов
Расположение каналов : Front: L C R, Side: L R, LFE
Частота : 48,0 КГц
Частота кадров : 93,750 кадра/сек (512 SPF)
Битовая глубина : 24 бит
Метод сжатия : С потерями
Размер потока : 1,64 Гбайт (12%)
Заголовок : DTS 5.1 @ 1.5mbps
Язык : German
Default : Нет
Forced : Нет
Текст #1
Идентификатор : 7
Формат : UTF-8
Идентификатор кодека : S_TEXT/UTF8
Идентификатор кодека/Информация : UTF-8 Plain Text
Продолжительность : 2 ч. 29 м.
Битрейт : 74 бит/сек
ElementCount : 1328
Размер потока : 81,4 Кбайт (0%)
Язык : Russian
Default : Да
Forced : Нет
Текст #2
Идентификатор : 8
Формат : UTF-8
Идентификатор кодека : S_TEXT/UTF8
Идентификатор кодека/Информация : UTF-8 Plain Text
Продолжительность : 2 ч. 31 м.
Битрейт : 39 бит/сек
ElementCount : 1122
Размер потока : 44,0 Кбайт (0%)
Язык : English
Default : Нет
Forced : Нет
Текст #3
Идентификатор : 9
Формат : UTF-8
Идентификатор кодека : S_TEXT/UTF8
Идентификатор кодека/Информация : UTF-8 Plain Text
Продолжительность : 2 ч. 28 м.
Битрейт : 51 бит/сек
ElementCount : 1152
Размер потока : 56,2 Кбайт (0%)
Язык : German
Default : Нет
Forced : Нет

Скриншоты



Display posts:    

Current time is: 22-Oct 00:45

All times are UTC ± 0


You cannot post new topics in this forum
You cannot reply to topics in this forum
You cannot edit your posts in this forum
You cannot delete your posts in this forum
You cannot vote in polls in this forum
You cannot attach files in this forum
You cannot download files in this forum

!ATTENTION!
The site does not give electronic versions of products, and is engaged only in a collecting and cataloguing of the references sent and published at a forum by our readers. If you are the legal owner of any submitted material and do not wish that the reference to it was in our catalogue, contact us and we shall immediately remove her. Files for an exchange on tracker are given by users of a site, and the administration does not bear the responsibility for their maintenance. The request to not fill in the files protected by copyrights, and also files of the illegal maintenance!