Ивановский Торрент трекер
Яндекс.Погода
 

[Quote]
HUNTER

Бродяга-миллиардер / The Billion Dollar Hobo
Страна: США
Жанр: комедия, семейный
Год выпуска: 1977
Продолжительность: 01:33:29
Перевод: Профессиональный (двухголосый закадровый) НТВ+
Субтитры: нет
Оригинальная аудиодорожка: английский
Режиссер: Стюарт Э. МакГоун / Stuart E. McGowan
В ролях: Тим Конвэй, Уилл Джиэр, Эрик Уэстон, Сидни Лэссик, Джон Майхерс, Фрэнк Сиверо, Шарон Кларк, Виктория Кэрролл
Описание: Миллиардер, нажив свое состояние в трудные времена великой депрессии, оставляет завещание своему племяннику, но так как он сам добивался своего состояния трудным путем, решил, что племянник тоже должен испытать все прелести трудной жизни на себе. Он должен быть бродягой, без гроша в кармане, скитаться по железной дороге.
Задание племянник получает необычное, в населенный пункт он должен добираться строго за указанное время, по каждому прибытию в населенный пункт он должен получать письмо, где будет указана следующая цель, он не должен упоминать свое настоящее имя, ему дают другое, в помощь преодоление этого сложного задания миллиардер дает племяннику собаку, которая постоянно должна находиться с ним и ему помогать. Только испытав эти трудности, он получит огромное состояние в наследство…

Сэмпл: http://sendfile.su/1401754
Тип релиза: HDTV 1080i
Контейнер: TS
Видео: AVC, 1920х1080, 7033 Kbps, 25.000 fps
Аудио: русский, MP2, 2 ch, 192 Kbps, 48.0 KHz
Аудио 2: английский, MP2, 2 ch, 192 Kbps, 48.0 KHz
Rip by

MediaInfo

General
ID : 1 (0x1)
Complete name : D:\Бродяга-миллиардер.ts
Format : MPEG-TS
File size : 5.10 GiB
Duration : 1h 33mn
Overall bit rate mode : Variable
Overall bit rate : 7 807 Kbps
Video
ID : 1210 (0x4BA)
Menu ID : 142 (0x8E)
Format : AVC
Format/Info : Advanced Video Codec
Format profile : [email protected]
Format settings, CABAC : Yes
Format settings, ReFrames : 4 frames
Format settings, GOP : M=4, N=28
Codec ID : 27
Duration : 1h 33mn
Bit rate : 7 033 Kbps
Width : 1 920 pixels
Height : 1 080 pixels
Display aspect ratio : 16:9
Frame rate : 25.000 fps
Standard : Component
Color space : YUV
Chroma subsampling : 4:2:0
Bit depth : 8 bits
Scan type : Interlaced
Scan order : Top Field First
Bits/(Pixel*Frame) : 0.136
Stream size : 4.59 GiB (90%)
Color primaries : BT.709
Transfer characteristics : BT.709
Matrix coefficients : BT.709
Audio #1
ID : 1211 (0x4BB)
Menu ID : 142 (0x8E)
Format : MPEG Audio
Format version : Version 1
Format profile : Layer 2
Codec ID : 3
Duration : 1h 33mn
Bit rate mode : Constant
Bit rate : 192 Kbps
Channel(s) : 2 channels
Sampling rate : 48.0 KHz
Compression mode : Lossy
Stream size : 128 MiB (2%)
Language : Russian
Audio #2
ID : 1212 (0x4BC)
Menu ID : 142 (0x8E)
Format : MPEG Audio
Format version : Version 1
Format profile : Layer 2
Codec ID : 3
Duration : 1h 33mn
Bit rate mode : Constant
Bit rate : 192 Kbps
Channel(s) : 2 channels
Sampling rate : 48.0 KHz
Compression mode : Lossy
Stream size : 128 MiB (2%)
Language : English

Скриншоты



Display posts:    

Current time is: 16-Oct 13:10

All times are UTC ± 0


You cannot post new topics in this forum
You cannot reply to topics in this forum
You cannot edit your posts in this forum
You cannot delete your posts in this forum
You cannot vote in polls in this forum
You cannot attach files in this forum
You cannot download files in this forum

!ATTENTION!
The site does not give electronic versions of products, and is engaged only in a collecting and cataloguing of the references sent and published at a forum by our readers. If you are the legal owner of any submitted material and do not wish that the reference to it was in our catalogue, contact us and we shall immediately remove her. Files for an exchange on tracker are given by users of a site, and the administration does not bear the responsibility for their maintenance. The request to not fill in the files protected by copyrights, and also files of the illegal maintenance!