Российский Торрент трекер
Яндекс.Погода
 

[Quote]
HUNTER

Банкротство / Krach
Страна: Франция, Канада, Бельгия
Студия: Angoa-Agicoa, Canal+ [fr], Caramel Film, Carrimages 5, Casa Kafka Pictures
Жанр: драма, триллер
Год выпуска: 2010
Продолжительность: 01:22:42
Перевод: Профессиональный (многоголосый закадровый) - НТВ+
Субтитры: русские (на неозвученные фрагменты - s-n), английские (на французскую речь), французские (на английскую речь)
Оригинальная аудиодорожка: французский
Режиссер: Фабрис Генестал / Fabrice Genestal
В ролях: Жиль Леллуш, Ваина Джоканте, Камар Аббас, Жоффре Вербрюгген, Шарль Берлен, Майкл Мэдсен, Лиза Рэй, Джейсон Бликер, Иван Фокс, Грэм Катбертсон, Фрэнк Фонтейн, Сэм Стоун, Лори Грэхэм, Терри Хэйг, Стефан Демерс, Доминик Лонго, Кристиан Пол, Андре-Анна Куэснел, Саманта Мур, Куинтон Шор, Иван Смит, Дэниэл Пилон, Фрэнк Скорпион, Артур Холден, Гвидо Грассо мл., Джон Топор, Дэвид Шаап, Адам Гринберг, Ларри Дэй, Саймон Далаж, Стив Бэрри, Дженни Кэри, Жерар Селльер, Дэвид Тремблэ, Агнешка Вроновска, Дженнифер Дебьен, Патриция Стасьяк, Ален Надро, Пьер Чавес, Паскаль Брун, Франсуа Пакетт, Джанет Лэйн, Бенжамин Хэтчер, Нэнси Боузи, Клаудиа Фортума, Кэрол Тупан, Викки Вон, Эндрю Фармер, Марк Ламберт, Донни Фалсетти, Дэвид Ригби, Карим Бабин, Хезер Эшли, Клод Хуа
Роли озвучивали: Жанна Никонова, Василий Зотов, Даниил Эльдаров
Описание: Молодой и горячий трейдер с Уолл-стрит спроектировал уникальную торговую систему, основанную на климатологии, и заработал с её помощью большие деньги, но... какой ценой?
Доп. информация: В скачанный с французского трекера рип добавлена многоголоска из релиза - https://rutracker.org/forum/viewtopic.php?t=3647094.
Сэмпл: https://disk.yandex.ru/i/M_qfpl34Xiiw8w
Тип релиза: BDRip 1080p
Контейнер: MKV
Видео: 9850 Кбит/сек, AVC 1920*816 (2,35:1), 25,000 кадров/сек, CABAC
Аудио: Русский, 192 Кбит/сек, 44,1 КГц, 2 канала, AC-3
Аудио 2: Французский, 1509 Кбит/сек, 48,0 КГц, 24 бит, 6 каналов, DTS
Формат субтитров: softsub (SRT)

MediaInfo

Общее
Уникальный идентификатор : 284866537114498747636252668523745338576 (0xD64F4CA55D76DDE765AADEBA3F1364D0)
Полное имя : D:\MONAR\Видео\Художественные фильмы\Зарубежное кино\Банкротство (2010) BDRip 1080p.mkv
Формат : Matroska
Версия формата : Version 4
Размер файла : 6,67 Гбайт
Продолжительность : 1 ч. 22 м.
Общий поток : 11,5 Мбит/сек
Название фильма : Krach (2010)
Дата кодирования : UTC 2021-10-17 16:57:18
Программа кодирования : mkvmerge v62.0.0 ('Apollo') 64-bit
Библиотека кодирования : libebml v1.4.2 + libmatroska v1.6.4
Видео
Идентификатор : 1
Формат : AVC
Формат/Информация : Advanced Video Codec
Профиль формата : [email protected]
Настройки формата : CABAC / 5 Ref Frames
Параметр CABAC формата : Да
Параметр RefFrames формата : 5 кадров
Идентификатор кодека : V_MPEG4/ISO/AVC
Продолжительность : 1 ч. 22 м.
Битрейт : 9 850 Кбит/сек
Ширина : 1 920 пикселей
Высота : 816 пикселей
Соотношение сторон : 2,35:1
Режим частоты кадров : Постоянный
Частота кадров : 25,000 кадров/сек
Цветовое пространство : YUV
Субдискретизация насыщенности : 4:2:0
Битовая глубина : 8 бит
Тип развёртки : Прогрессивная
Бит/(Пиксели*Кадры) : 0.251
Размер потока : 5,69 Гбайт (85%)
Библиотека кодирования : x264 core 112 r1834 a51816a
Настройки программы : cabac=1 / ref=5 / deblock=1:0:0 / analyse=0x3:0x113 / me=umh / subme=7 / psy=1 / psy_rd=1.00:0.00 / mixed_ref=1 / me_range=16 / chroma_me=1 / trellis=1 / 8x8dct=1 / cqm=0 / deadzone=21,11 / fast_pskip=0 / chroma_qp_offset=-2 / threads=12 / sliced_threads=0 / nr=0 / decimate=1 / interlaced=0 / constrained_intra=0 / bframes=3 / b_pyramid=2 / b_adapt=1 / b_bias=0 / direct=1 / weightb=1 / open_gop=0 / weightp=2 / keyint=250 / keyint_min=25 / scenecut=40 / intra_refresh=0 / rc_lookahead=40 / rc=2pass / mbtree=1 / bitrate=9850 / ratetol=1.0 / qcomp=0.60 / qpmin=0 / qpmax=51 / qpstep=4 / cplxblur=20.0 / qblur=0.5 / ip_ratio=1.40 / aq=1:1.00
Язык : French
Default : Да
Forced : Нет
Аудио #1
Идентификатор : 2
Формат : AC-3
Формат/Информация : Audio Coding 3
Коммерческое название : Dolby Digital
Идентификатор кодека : A_AC3
Продолжительность : 1 ч. 22 м.
Вид битрейта : Постоянный
Битрейт : 192 Кбит/сек
Каналы : 2 канала
Channel layout : L R
Частота : 44,1 КГц
Частота кадров : 28,711 кадров/сек (1536 SPF)
Метод сжатия : С потерями
Размер потока : 113 Мбайт (2%)
Заголовок : MVO
Язык : Russian
Service kind : Complete Main
Default : Да
Forced : Нет
Аудио #2
Идентификатор : 3
Формат : DTS
Формат/Информация : Digital Theater Systems
Идентификатор кодека : A_DTS
Продолжительность : 1 ч. 22 м.
Вид битрейта : Постоянный
Битрейт : 1 509 Кбит/сек
Каналы : 6 каналов
Channel layout : C L R Ls Rs LFE
Частота : 48,0 КГц
Частота кадров : 93,750 кадра/сек (512 SPF)
Битовая глубина : 24 бит
Метод сжатия : С потерями
Размер потока : 891 Мбайт (13%)
Заголовок : original
Язык : French
Default : Нет
Forced : Нет
Текст #1
Идентификатор : 4
Формат : UTF-8
Идентификатор кодека : S_TEXT/UTF8
Идентификатор кодека/Информация : UTF-8 Plain Text
Продолжительность : 2 м. 50 с.
Битрейт : 41 бит/сек
Count of elements : 19
Размер потока : 880 байт (0%)
Заголовок : custom
Язык : Russian
Default : Да
Forced : Нет
Текст #2
Идентификатор : 5
Формат : UTF-8
Идентификатор кодека : S_TEXT/UTF8
Идентификатор кодека/Информация : UTF-8 Plain Text
Продолжительность : 1 ч. 19 м.
Битрейт : 19 бит/сек
Count of elements : 497
Размер потока : 11,4 Кбайт (0%)
Заголовок : custom
Язык : English
Default : Нет
Forced : Нет
Текст #3
Идентификатор : 6
Формат : UTF-8
Идентификатор кодека : S_TEXT/UTF8
Идентификатор кодека/Информация : UTF-8 Plain Text
Продолжительность : 1 ч. 16 м.
Битрейт : 22 бит/сек
Count of elements : 416
Размер потока : 12,7 Кбайт (0%)
Заголовок : custom
Язык : French
Default : Нет
Forced : Нет
Меню
00:00:00.000 : en:Chapter 01
00:05:46.025 : en:Chapter 02
00:19:27.148 : en:Chapter 03
00:28:33.415 : en:Chapter 04
00:41:58.236 : en:Chapter 05
00:52:45.874 : en:Chapter 06
01:03:41.742 : en:Chapter 07
01:14:35.285 : en:Chapter 08

Скриншоты

Перезалив

17.10.21 Торрент-файл перезалит. Добавлены два потока субтитров. Сэмпл и отчёт перезалиты.
18.10.21 Торрент-файл перезалит. Исправлен рассинхрон. Сэмпл и отчёт перезалиты.


Display posts:    

Current time is: 04-Dec 09:57

All times are UTC ± 0


You cannot post new topics in this forum
You cannot reply to topics in this forum
You cannot edit your posts in this forum
You cannot delete your posts in this forum
You cannot vote in polls in this forum
You cannot attach files in this forum
You cannot download files in this forum

!ATTENTION!
The site does not give electronic versions of products, and is engaged only in a collecting and cataloguing of the references sent and published at a forum by our readers. If you are the legal owner of any submitted material and do not wish that the reference to it was in our catalogue, contact us and we shall immediately remove her. Files for an exchange on tracker are given by users of a site, and the administration does not bear the responsibility for their maintenance. The request to not fill in the files protected by copyrights, and also files of the illegal maintenance!