Бамблби в 3Д / Bumblebee 3D (Трэвис Найт / Travis Knight) [2018, фантастика, боевик, приключения, HDRip] Half SideBySide / Горизонтальная анаморфная стереопара :: Российский Торрент трекер
Российский Торрент трекер
Яндекс.Погода
 

[Quote]
HUNTER

БамблбиBumblebee
«У каждого приключения есть начало»
- Год выпуска: 2018
Страна: Китай, США
Жанр: фантастика, боевик, приключения
Продолжительность: 01:53:54
Перевод: Профессиональный дублированный (лицензия)
Режиссер: Трэвис Найт / Travis Knight-Роли исполняли(дублировали):

Bumblebee - Дилан О’Брайен (Леван Горозия)
Charlie - Хейли Стайнфелд (Лина Иванова)
Memo - Хорхе Лендеборг мл. (Антон Колесников)
Agent Burns - Джон Сина (Денис Бгавин)
Otis - Джейсон Йен Дракер (Степан Студилов)
Sally - Памела Адлон (Анастасия Лапина)
Ron - Стивен Шнайдер (Даниил Эльдаров)
Tripp - Рикардо Хойос (Михаил Данилюк)
Dr. Powell - Джон Ортис (Диомид Виноградов)
General Whalen - Глинн Тёрмен (Сергей Пономарёв)
Uncle Hank - Лен Кариу (Владимир Левашёв)
Tina - Грейси Дзинни (Юлия Горохова)
-Описание: 1987 год. Скрываясь от преследования, Бамблби прибывает на Землю, где тут же сталкивается с военными. В результате стычки с землянами и десептиконом, Бамблби лишается голосового модуля, повреждает память и перед отключкой сканирует стоящий неподалёку Фольксваген Жук. Через некоторое время девушка по имени Чарли находит его на автомобильной свалке в калифорнийском городке и получает в качестве подарка на 18-летие. Закатив машину в свой гараж, Чарли с удивлением обнаруживает, что ей достался не простой жёлтый Фольксваген Жук.-Доп. инфо: Качество низкое, поскольку, это явно захват экрана со стриминговой трансляции.-Премьера: 3 декабря 2018 (13 декабря 2018)
Бюджет: $135 000 000
Кассовые сборы: $467 989 645

. .
-Качество: HDRip (by Ash61)
Контейнер: MKV
Формат 3D: Half SideBySide / Горизонтальная анаморфная стереопара
Порядок ракурсов: левый ракурс первый-Видео: AVC / 1280х720p / 23,976 fps / 3500 kbps
Аудио:
#1 - Русский / AC3 / 48 KHz / 5.1 ch / 640 Kbps (Дубляж - BD CEE)
#2 - Украинский / AC3 / 48 KHz / 5.1 ch / 448 Kbps (Дубляж - Postmodern) (спасибо Hurtom!)
#3 - English / AC3 / 48 KHz / 5.1 ch / 640 Kbps (Original)
Субтитры (SRT):
Вшитые (softsub):
#1 - Русские Форсированные (вер. Ash61) (включены по умолчанию)
#2 - Русские Полные
#3 - Украинские Форсированные (вер. Ash61)
#4 - Украинские Полные (Netflix)
#5 - Украинские Полные (BD)
#6 - English Full
#7 - English SDH
Внешние (UTF-8):
#1 - Русские Форсированные (вер. Ash61) (включены по умолчанию)
#2 - Украинские Форсированные (вер. Ash61)

MediaInfo

General
Unique ID : 212226713938412189787826895709081442783 (0x9FA960DAB66BF8BB8EF515BE8EA419DF)
Complete name : D:\Bumblebee(2018)3D-hSBS.720p(WEBRip.Ash61)\Bumblebee(2018)3D-hSBS.720p(WEBRip.Ash61).mkv
Format : Matroska
Format version : Version 2
File size : 4.16 GiB
Duration : 1 h 53 min
Overall bit rate : 5 229 kb/s
Movie name : Бамблби / Bumblebee (2018) in 3D
Encoded date : UTC 2022-02-17 16:19:04
Writing application : mkvmerge v5.8.0 ('No Sleep / Pillow') built on Sep 2 2012 15:37:04
Writing library : libebml v1.2.3 + libmatroska v1.3.0
Video
ID : 1
Format : AVC
Format/Info : Advanced Video Codec
Format profile : [email protected]
Format settings : CABAC / 4 Ref Frames
Format settings, CABAC : Yes
Format settings, Reference : 4 frames
Codec ID : V_MPEG4/ISO/AVC
Duration : 1 h 53 min
Bit rate : 3 500 kb/s
Width : 1 280 pixels
Height : 720 pixels
Display aspect ratio : 16:9
Frame rate mode : Constant
Frame rate : 23.976 (24000/1001) FPS
Color space : YUV
Chroma subsampling : 4:2:0
Bit depth : 8 bits
Scan type : Progressive
Bits/(Pixel*Frame) : 0.158
Stream size : 2.70 GiB (65%)
Title : Rip by Ash61 (source - screen capture)
Writing library : x264 core 146 r2538 121396c
Encoding settings : cabac=1 / ref=4 / deblock=1:-3:-3 / analyse=0x3:0x113 / me=umh / subme=10 / psy=1 / psy_rd=1.00:0.00 / mixed_ref=1 / me_range=32 / chroma_me=1 / trellis=2 / 8x8dct=1 / cqm=0 / deadzone=21,11 / fast_pskip=0 / chroma_qp_offset=-2 / threads=12 / lookahead_threads=3 / sliced_threads=0 / nr=0 / decimate=0 / interlaced=0 / bluray_compat=0 / constrained_intra=0 / bframes=10 / b_pyramid=2 / b_adapt=2 / b_bias=0 / direct=3 / weightb=1 / open_gop=0 / weightp=2 / keyint=250 / keyint_min=23 / scenecut=40 / intra_refresh=0 / rc_lookahead=60 / rc=2pass / mbtree=0 / bitrate=3500 / ratetol=1.0 / qcomp=0.70 / qpmin=0 / qpmax=69 / qpstep=4 / cplxblur=20.0 / qblur=0.5 / vbv_maxrate=40000 / vbv_bufsize=30000 / nal_hrd=none / filler=0 / frame-packing=3 / ip_ratio=1.40 / pb_ratio=1.30 / aq=1:0.70
Language : English
Default : Yes
Forced : No
Audio #1
ID : 2
Format : AC-3
Format/Info : Audio Coding 3
Commercial name : Dolby Digital
Codec ID : A_AC3
Duration : 1 h 53 min
Bit rate mode : Constant
Bit rate : 640 kb/s
Channel(s) : 6 channels
Channel layout : L R C LFE Ls Rs
Sampling rate : 48.0 kHz
Frame rate : 31.250 FPS (1536 SPF)
Compression mode : Lossy
Stream size : 521 MiB (12%)
Title : Дубляж (BD CEE)
Language : Russian
Service kind : Complete Main
Default : Yes
Forced : No
Audio #2
ID : 3
Format : AC-3
Format/Info : Audio Coding 3
Commercial name : Dolby Digital
Codec ID : A_AC3
Duration : 1 h 53 min
Bit rate mode : Constant
Bit rate : 448 kb/s
Channel(s) : 6 channels
Channel layout : L R C LFE Ls Rs
Sampling rate : 48.0 kHz
Frame rate : 31.250 FPS (1536 SPF)
Compression mode : Lossy
Stream size : 365 MiB (9%)
Title : Дубляж
Language : Ukrainian
Service kind : Complete Main
Default : No
Forced : No
Audio #3
ID : 4
Format : AC-3
Format/Info : Audio Coding 3
Commercial name : Dolby Digital
Codec ID : A_AC3
Duration : 1 h 53 min
Bit rate mode : Constant
Bit rate : 640 kb/s
Channel(s) : 6 channels
Channel layout : L R C LFE Ls Rs
Sampling rate : 48.0 kHz
Frame rate : 31.250 FPS (1536 SPF)
Compression mode : Lossy
Stream size : 521 MiB (12%)
Title : Original
Language : English
Service kind : Complete Main
Default : No
Forced : No
Text #1
ID : 5
Format : UTF-8
Codec ID : S_TEXT/UTF8
Codec ID/Info : UTF-8 Plain Text
Title : Форсированные (вер. Ash61)
Language : Russian
Default : Yes
Forced : No
Text #2
ID : 6
Format : UTF-8
Codec ID : S_TEXT/UTF8
Codec ID/Info : UTF-8 Plain Text
Title : Полные
Language : Russian
Default : No
Forced : No
Text #3
ID : 7
Format : UTF-8
Codec ID : S_TEXT/UTF8
Codec ID/Info : UTF-8 Plain Text
Title : Форсированные (вер. Ash61)
Language : Ukrainian
Default : No
Forced : No
Text #4
ID : 8
Format : UTF-8
Codec ID : S_TEXT/UTF8
Codec ID/Info : UTF-8 Plain Text
Title : Полные (Netflix)
Language : Ukrainian
Default : No
Forced : No
Text #5
ID : 9
Format : UTF-8
Codec ID : S_TEXT/UTF8
Codec ID/Info : UTF-8 Plain Text
Title : Полные (BD)
Language : Ukrainian
Default : No
Forced : No
Text #6
ID : 10
Format : UTF-8
Codec ID : S_TEXT/UTF8
Codec ID/Info : UTF-8 Plain Text
Title : Full
Language : English
Default : No
Forced : No
Text #7
ID : 11
Format : UTF-8
Codec ID : S_TEXT/UTF8
Codec ID/Info : UTF-8 Plain Text
Title : SDH
Language : English
Default : No
Forced : No
Menu
00:00:00.000 : :1
00:03:30.710 : :2
00:12:16.485 : :3
00:16:56.724 : :4
00:21:03.053 : :5
00:26:42.601 : :6
00:32:33.326 : :7
00:39:44.090 : :8
00:45:18.590 : :9
00:50:43.623 : :10
00:54:16.253 : :11
01:01:10.708 : :12
01:06:26.900 : :13
01:11:39.545 : :14
01:16:08.104 : :15
01:21:37.140 : :16
01:25:08.603 : :17
01:30:15.408 : :18
01:36:46.801 : :19
01:43:52.560 : :20
01:49:43.202 : :21

Для оценки 3Д - Анимированные скрины






















Display posts:    

Current time is: 26-May 10:16

All times are UTC ± 0


You cannot post new topics in this forum
You cannot reply to topics in this forum
You cannot edit your posts in this forum
You cannot delete your posts in this forum
You cannot vote in polls in this forum
You cannot attach files in this forum
You cannot download files in this forum

!ATTENTION!
The site does not give electronic versions of products, and is engaged only in a collecting and cataloguing of the references sent and published at a forum by our readers. If you are the legal owner of any submitted material and do not wish that the reference to it was in our catalogue, contact us and we shall immediately remove her. Files for an exchange on tracker are given by users of a site, and the administration does not bear the responsibility for their maintenance. The request to not fill in the files protected by copyrights, and also files of the illegal maintenance!