Российский Торрент трекер
Яндекс.Погода
 

[Quote]
HUNTER

Балабол-5
Год выпуска: 2021
Страна: Россия
Жанр: детектив, комедия, криминал
Продолжительность: ~00:50:00 серия
Субтитры: нет
Режиссёр: Владимир Мельник
В ролях: Константин Юшкевич, Илья Шляга, Вадим Андреев, Инга Оболдина, Ирина Низина, Мария Пирогова, Иван Агапов, Руслан Ягудин, Андрей Иванов, Артём Елисеев, Григорий Сиятвинда, Анастасия Степанюк, Олег Карин, Виктория Маслова, Ольга Плешкова, Борис Каморзин
Описание: Саня Балабин работает под началом своего старого друга Грибанова, а в его отделе снова появляется новичок – и это очень необычное пополнение, которого никто не ожидал. В личной жизни у Сани тоже перемены, он окончательно расходится с Леной, которая нашла себе новую любовь. Одновременно в жизнь Сани неожиданно возвращается его старая знакомая Анжелика. И приносит с собой массу проблем. Из-за этой дамы Балабину угрожает смертельная опасность, за ним начинается настоящая охота. Смогут ли старая любовь и новые друзья спасти Балабола?

Реклама: Нет.
Кинопоиск
Все раздачи сериала
Sample
Качество: WEBRip - Files-x
Формат: AVI
Видео кодек: XviD
Аудио кодек: AC3
Видео: 720x400 (1.80:1), 25 fps, XviD ~1600 kbps avg, 0.222 bit/pixel
Аудио: 48.0 kHz, AC3 Dolby Digital, 2/0 (L,R) ch, ~ 192 kbps

Внимание! Раздача ведётся путём добавления новых серий

Раздача ведётся путём добавления новых серий, при каждом добавлении создаётся новый торрент. Чтобы начать докачку новой серии, пользователям необходимо сделать следующее:
- Остановить скачивание.
- Удалить старый торрент у себя из клиента (старые серии удалять не надо).
- Скачать новый торрент и запустить его у себя в клиенте вместо старого, при этом указать клиенту путь в старую папку куда и должно происходить скачивание новых серий.
Ваш клиент при этом должен произвести хеширование (проверку) старой папки (если не производит сам - помогите ему сделать это), и будет докачивать только те серии которых у вас ещё нет. Старые серии при этом не удаляются, а продолжают раздаваться!
Если вы уже удалили старые серии, то предотвратить повторную закачку старых серий можно, отжав галочку в соответствующих местах при запуске нового торрента. По возможности, желательно не удалять старые серии как можно дольше, чтобы релизер не столько продолжал раздавать старые серии, а смог сконцентрироваться на новых.

MI

General
Complete name : D:\Балабол.S05.(2021).WEBRip.Files-x\01.Балабол.S05.(2021).WEBRip.Files-x.avi
Format : AVI
Format/Info : Audio Video Interleave
File size : 668 MiB
Duration : 52 min 0 s
Overall bit rate : 1 797 kb/s
Writing application : VirtualDubMod 1.5.10.3 | www.virtualdub-fr.org || (build 2550/release)
Writing library : VirtualDubMod build 2550/release
Video
ID : 0
Format : MPEG-4 Visual
Format profile : Advanced [email protected]
Format settings : BVOP1 / Custom Matrix
Format settings, BVOP : 1
Format settings, QPel : No
Format settings, GMC : No warppoints
Format settings, Matrix : Custom
Codec ID : XVID
Codec ID/Hint : XviD
Duration : 52 min 0 s
Bit rate : 1 595 kb/s
Width : 720 pixels
Height : 400 pixels
Display aspect ratio : 16:9
Frame rate : 25.000 FPS
Color space : YUV
Chroma subsampling : 4:2:0
Bit depth : 8 bits
Scan type : Progressive
Compression mode : Lossy
Bits/(Pixel*Frame) : 0.222
Stream size : 593 MiB (89%)
Writing library : XviD 73
Audio
ID : 1
Format : AC-3
Format/Info : Audio Coding 3
Codec ID : 2000
Duration : 52 min 0 s
Bit rate mode : Constant
Bit rate : 192 kb/s
Channel(s) : 2 channels
Channel positions : Front: L R
Sampling rate : 48.0 kHz
Frame rate : 31.250 FPS (1536 SPF)
Bit depth : 16 bits
Compression mode : Lossy
Stream size : 71.4 MiB (11%)
Alignment : Split accross interleaves
Interleave, duration : 40 ms (1.00 video frame)
Interleave, preload duratio : 500 ms
Service kind : Complete Main

Скриншоты




Display posts:    

Current time is: 05-Dec 23:12

All times are UTC ± 0


You cannot post new topics in this forum
You cannot reply to topics in this forum
You cannot edit your posts in this forum
You cannot delete your posts in this forum
You cannot vote in polls in this forum
You cannot attach files in this forum
You cannot download files in this forum

!ATTENTION!
The site does not give electronic versions of products, and is engaged only in a collecting and cataloguing of the references sent and published at a forum by our readers. If you are the legal owner of any submitted material and do not wish that the reference to it was in our catalogue, contact us and we shall immediately remove her. Files for an exchange on tracker are given by users of a site, and the administration does not bear the responsibility for their maintenance. The request to not fill in the files protected by copyrights, and also files of the illegal maintenance!