Алекс Лютый. Дело Шульца / Сезон: 2 / Серии: 1-12 из 12 (Леонид Белозорович) [2022, детектив, история, триллер, WEBRip] + Sub (Rus) :: Российский Торрент трекер
Российский Торрент трекер
Яндекс.Погода
 

[Quote]
HUNTER

Алекс Лютый. Дело Шульца
Год выпуска: 2022
Страна: Россия
Жанр: детектив, история, триллер
Продолжительность: ~00:48:00 серия
Субтитры: русские
Режиссёр: Леонид Белозорович
В ролях: Антон Хабаров, Екатерина Олькина, Мария Аниканова, Серафима Соловьева, Анастасия Обжигина, Михаил Половенко, Данил Визжалов, Станислав Стрелков, Евгений Антропов, Александр Кононец, Алексей Красноцветов, Андрей Аладьин, Геннадий Алимпиев, Борис Шувалов, Кристиан Мок, Юрий Ицков, Дмитрий Муляр, Эмилия Спивак, Саша Орлова, Владимир Селезнёв

Описание: 1975 год, Ленинград. Молодую девушку Ольгу Пшеничную, племянницу известной телеведущей, находят убитой. На месте преступления обнаруживают важную улику – хирургический пенал со свастикой и гравировкой «Hermann Schulz». К делу привлекают подполковника КГБ Андрея Елисеева из спецотдела по розыску военных преступников. Он одержим своей работой и положил всю жизнь на поиск беглых нацистов и коллаборационистов.

Реклама: Нет.
Кинопоиск
Все раздачи сериала
Sample
Качество: WEBRip - shevanlk
Формат: AVI
Видео кодек: XviD
Аудио кодек: MP3
Видео: 720x304 (2.37:1), 25 fps, XviD ~1450 kbps avg, 0.260 bit/pixel
Аудио: 48 kHz, MPEG Layer 3, 2 ch, ~192.00 kbps avg

MI

General
Complete name : D:\S02.Aleks.Lyutyj.2021\S02.E01.Aleks.Lyutyj.avi
Format : AVI
Format/Info : Audio Video Interleave
File size : 560 MiB
Duration : 48 min 8 s
Overall bit rate : 1 627 kb/s
Writing application : VirtualDubMod 1.5.10.3 | www.virtualdub-fr.org || (build 2550/release)
Writing library : VirtualDubMod build 2550/release
Video
ID : 0
Format : MPEG-4 Visual
Format profile : Advanced [email protected]
Format settings : BVOP1
Format settings, BVOP : 1
Format settings, QPel : No
Format settings, GMC : No warppoints
Format settings, Matrix : Default (MPEG)
Codec ID : XVID
Codec ID/Hint : XviD
Duration : 48 min 8 s
Bit rate : 1 425 kb/s
Width : 720 pixels
Height : 304 pixels
Display aspect ratio : 2.35:1
Frame rate : 25.000 FPS
Color space : YUV
Chroma subsampling : 4:2:0
Bit depth : 8 bits
Scan type : Progressive
Compression mode : Lossy
Bits/(Pixel*Frame) : 0.260
Stream size : 491 MiB (88%)
Writing library : XviD 73
Audio
ID : 1
Format : MPEG Audio
Format version : Version 1
Format profile : Layer 3
Codec ID : 55
Codec ID/Hint : MP3
Duration : 48 min 8 s
Bit rate mode : Constant
Bit rate : 192 kb/s
Channel(s) : 2 channels
Sampling rate : 48.0 kHz
Frame rate : 41.667 FPS (1152 SPF)
Compression mode : Lossy
Stream size : 66.1 MiB (12%)
Alignment : Aligned on interleaves
Interleave, duration : 40 ms (1.00 video frame)
Interleave, preload duratio : 504 ms
Writing library : LAME3.99r
Encoding settings : -m s -V 4 -q 2 -lowpass 18.6 -b 192

Скриншоты




Display posts:    

Current time is: 26-May 11:01

All times are UTC ± 0


You cannot post new topics in this forum
You cannot reply to topics in this forum
You cannot edit your posts in this forum
You cannot delete your posts in this forum
You cannot vote in polls in this forum
You cannot attach files in this forum
You cannot download files in this forum

!ATTENTION!
The site does not give electronic versions of products, and is engaged only in a collecting and cataloguing of the references sent and published at a forum by our readers. If you are the legal owner of any submitted material and do not wish that the reference to it was in our catalogue, contact us and we shall immediately remove her. Files for an exchange on tracker are given by users of a site, and the administration does not bear the responsibility for their maintenance. The request to not fill in the files protected by copyrights, and also files of the illegal maintenance!