Лабиринт / Labyrinthus- Страна: Бельгия, Нидерланды
Студия: Family Affair Productions, Savage Film
Жанр: Приключения, семейный
Год выпуска: 2014
Продолжительность: 01:34:32
Перевод: Одноголосый закадровый
Субтитры: русские
Оригинальная аудиодорожка: нидерландский
Режиссер: Дуглас Босвелл / Douglas Boswell
-В ролях: Пепийн Кодрон, Тина Эмбреш, Иван Песник, Хервиг Илгемс, Феликс Маесшальк, Эмма Верлинден, Спенсер Богерт-Описание: Юный Фрикке должен как можно быстрее разоблачить создателя зловещей компьютерной игры, чтобы спасти своих друзей.-Меню: есть, озвученое, статичное
Тип релиза: DVD9 (custom)
Контейнер: DVD-Video
Видео: PAL 16:9 (720x576) VBR
Аудио: AC3, 2/0 (L,R) ch, 224 kbps, Delay 0 mSec(Русский)
Аудио 2: AC3, 3/2 (L,C,R,SL,SR)+LFE ch, 384 kbps, Delay 0 mSec (Нидерландский)
-Доп. информация: СБОРКА НОРДЕРАСЭМПЛ

Используемые программы

PGCDemux (извлечение)
BeSweet, Sony Vegas 9 (звук)
MuxMan (сборка)
DvdReMakePro (финал)

MediaInfo

Общее
Полное имя : F:\МОИ ВИДЕО ЗАПИСИ DViX, AVi, MPG4\DVD ПЕРЕВЕДЕННЫЕ НА РУССКИЙ\Лабиринт Labyrinthus (2014)DVD - 5\Labyrinthus (2014) DVD\VIDEO_TS\VTS_01_4.VOB
Формат : MPEG-PS
Размер файла : 1024 Мбайт
Продолжительность : 21 м. 16 с.
Режим общего битрейта : Переменный
Общий поток : 6730 Кбит/сек
Видео
Идентификатор : 224 (0xE0)
Формат : MPEG Video
Версия формата : Version 2
Профиль формата : Main@Main
Настройки формата : BVOP
Параметр BVOP формата : Да
Параметр матрицы формата : По умолчанию
Параметр GOP формата : M=3, N=12
Структура изображения : Frame
Продолжительность : 21 м. 16 с.
Вид битрейта : Переменный
Битрейт : 5988 Кбит/сек
Максимальный битрейт : 8000 Кбит/сек
Ширина : 720 пикселей
Высота : 576 пикселей
Соотношение сторон : 16:9
Частота кадров : 25,000 кадров/сек
Стандарт вещания : PAL
Цветовое пространство : YUV
Субдискретизация насыщенности : 4:2:0
Битовая глубина : 8 бит
Тип развёртки : Чересстрочная
Порядок развёртки : Верхнее поле первое
Метод сжатия : С потерями
Бит/(Пиксели*Кадры) : 0.578
Временной код первого кадра : 01:02:11:11
Оригинал временного кода : Group of pictures header
GOP, открыто/закрыто : Открыто
Размер потока : 911 Мбайт (89%)
Аудио #1
Идентификатор : 189 (0xBD)-128 (0x80)
Формат : AC-3
Формат/Информация : Audio Coding 3
Коммерческое название : Dolby Digital
Режим смешивания : DVD-Video
Продолжительность : 21 м. 16 с.
Вид битрейта : Постоянный
Битрейт : 224 Кбит/сек
Каналы : 2 канала
Channel layout : L R
Частота : 48,0 КГц
Частота кадров : 31,250 кадров/сек (1536 SPF)
Битовая глубина : 16 бит
Метод сжатия : С потерями
Задержка видео : -672 мс.
Размер потока : 34,1 Мбайт (3%)
ServiceKind/String : Complete Main
Аудио #2
Идентификатор : 189 (0xBD)-129 (0x81)
Формат : AC-3
Формат/Информация : Audio Coding 3
Коммерческое название : Dolby Digital
Режим смешивания : DVD-Video
Продолжительность : 21 м. 16 с.
Вид битрейта : Постоянный
Битрейт : 384 Кбит/сек
Каналы : 6 каналов
Channel layout : L R C LFE Ls Rs
Частота : 48,0 КГц
Частота кадров : 31,250 кадров/сек (1536 SPF)
Битовая глубина : 16 бит
Метод сжатия : С потерями
Задержка видео : -736 мс.
Размер потока : 58,4 Мбайт (6%)
ServiceKind/String : Complete Main
Текст #1
Идентификатор : 189 (0xBD)-32 (0x20)
Формат : RLE
Формат/Информация : Run-length encoding
Режим смешивания : DVD-Video
Текст #2
Идентификатор : 189 (0xBD)-33 (0x21)
Формат : RLE
Формат/Информация : Run-length encoding
Режим смешивания : DVD-Video
Текст #3
Идентификатор : 189 (0xBD)-34 (0x22)
Формат : RLE
Формат/Информация : Run-length encoding
Режим смешивания : DVD-Video
Меню

DVDInfo

Title: Labyrinthus (2014) DVD
Size: 4.51 Gb ( 4 732 282,00 KBytes ) - DVD-9
Enabled regions: 1, 2, 3, 4, 5, 6, 7, 8
VTS_01 :
Play Length: 01:34:32
Video: PAL 16:9 (720x576) VBR, Auto Letterboxed
Audio:
Russian, AC3, 2/0 (L,R) ch, 224 kbps, Delay 0 mSec
Nederlands, AC3, 3/2 (L,C,R,SL,SR)+LFE ch, 384 kbps, Delay 0 mSec
Subtitles:
Nederlands
Francais
Russian
VTS_02 :
Play Length: 00:00:17
Video: PAL 16:9 (720x576) VBR, Auto Letterboxed
Audio:
Not specified (Dolby AC3, 6 ch)
VTS_03 :
Play Length: 00:00:01
Video: PAL 16:9 (720x576) VBR, Auto Letterboxed
VTS_04 :
Play Length: 00:02:01
Video: PAL 16:9 (720x576) VBR, Auto Letterboxed
Audio:
Nederlands (Dolby AC3, 2 ch)

Скриншоты меню