Валерия

Жанр: Pop
Носитель + Источник: WEB (https://www.deezer.com/ru/artist/807891)
Страна-производитель диска (релиза): РФ
Лета изданий:
Аудиокодек: FLAC
Тип рипа: tracks
Битрейт аудио: lossless
Наличие сканов в содержимом раздачи: нет
Общая продолжительность: 01:34:30Album

2017-12-05 - К солнцу - 00:36:06


01. Валерия - Я живу
02. Валерия - В твоем мире
03. Валерия - А4
04. Валерия - Бегу
05. Валерия - Космос
06. Валерия - Сердце
07. Валерия - Фотоальбом
08. Валерия - Микроинфаркты
09. Валерия - Мелодия
10. Валерия - Время любить

auCDtect

CUE Corrector v. 8.3.6 / b. 964 (Feb. 13, 2020)
————————————————————————————————————————————————————————————————————————
Валерия / К солнцу
Folder: 2017-12-05 К солнцу
Audio files:
01. Валерия - Я живу.flac [03:20.693; FLAC • 1012 kbps • 16 bit \ 44100 Hz • stereo; 24,23 MB (25 402 858 B)]
02. Валерия - В твоем мире.flac [04:00.613; FLAC • 913 kbps • 16 bit \ 44100 Hz • stereo; 26,21 MB (27 479 723 B)]
03. Валерия - А4.flac [03:26.853; FLAC • 1113 kbps • 16 bit \ 44100 Hz • stereo; 27,46 MB (28 793 140 B)]
04. Валерия - Бегу.flac [03:13.640; FLAC • 1044 kbps • 16 bit \ 44100 Hz • stereo; 24,10 MB (25 269 006 B)]
05. Валерия - Космос.flac [03:17.827; FLAC • 1016 kbps • 16 bit \ 44100 Hz • stereo; 23,97 MB (25 138 081 B)]
06. Валерия - Сердце.flac [03:29.093; FLAC • 1033 kbps • 16 bit \ 44100 Hz • stereo; 25,76 MB (27 011 122 B)]
07. Валерия - Фотоальбом.flac [04:19.773; FLAC • 1042 kbps • 16 bit \ 44100 Hz • stereo; 32,29 MB (33 862 466 B)]
08. Валерия - Микроинфаркты.flac [03:25.907; FLAC • 1087 kbps • 16 bit \ 44100 Hz • stereo; 26,69 MB (27 984 050 B)]
09. Валерия - Мелодия.flac [03:33.467; FLAC • 1005 kbps • 16 bit \ 44100 Hz • stereo; 25,59 MB (26 834 847 B)]
10. Валерия - Время любить.flac [03:56.547; FLAC • 976 kbps • 16 bit \ 44100 Hz • stereo; 27,55 MB (28 885 957 B)]
Accuracy: -m8
File 01. Валерия - Я живу - 100% CDDA
File 02. Валерия - В твоем мире - 100% CDDA
File 03. Валерия - А4 - 100% CDDA
File 04. Валерия - Бегу - 100% CDDA
File 05. Валерия - Космос - 100% CDDA
File 06. Валерия - Сердце - 100% CDDA
File 07. Валерия - Фотоальбом - 100% CDDA
File 08. Валерия - Микроинфаркты - 100% CDDA
File 09. Валерия - Мелодия - 100% CDDA
File 10. Валерия - Время любить - 100% CDDA
————— Summary: —————
These tracks looks like CDDA with probability 100%.
————————————————————————————————————————————————————————————————————————
ANALYZER:
auCDtect: CD records authenticity detector, version 0.8.2
Copyright (c) 2004 Oleg Berngardt. All rights reserved.
Copyright (c) 2004 Alexander Djourik. All rights reserved.
Time elapsed: 20.8 s
Log created at June 29, 2020 21:38:41
=== 7AB95622253BA656FE87B40FA147FE113C91373E1E991FDAEDE8BF65D15BE35F ===
-

DRM

foobar2000 1.5.1 / Dynamic Range Meter 1.1.1
log date: 2020-06-29 21:36:32
--------------------------------------------------------------------------------
Analyzed: Валерия / К солнцу
--------------------------------------------------------------------------------
DR Peak RMS Duration Track
--------------------------------------------------------------------------------
DR4 -0.96 dB -7.03 dB 3:21 01-Я живу
DR6 -1.04 dB -8.81 dB 4:01 02-В твоем мире
DR5 -1.01 dB -7.56 dB 3:27 03-А4
DR4 -1.04 dB -6.83 dB 3:14 04-Бегу
DR3 -1.04 dB -5.77 dB 3:18 05-Космос
DR4 -1.01 dB -6.62 dB 3:29 06-Сердце
DR6 -1.04 dB -9.04 dB 4:20 07-Фотоальбом
DR4 -1.01 dB -6.45 dB 3:26 08-Микроинфаркты
DR4 -1.04 dB -6.76 dB 3:33 09-Мелодия
DR4 -1.04 dB -7.27 dB 3:57 10-Время любить
--------------------------------------------------------------------------------
Number of tracks: 10
Official DR value: DR4
Samplerate: 44100 Hz
Channels: 2
Bits per sample: 16
Bitrate: 950 kbps
Codec: FLAC
================================================================================
Single

2016-06-01 - Он и она - 00:03:36


01. Валерия, Алексей Глызин - Он и она

auCDtect

CUE Corrector v. 8.3.6 / b. 964 (Feb. 13, 2020)
————————————————————————————————————————————————————————————————————————
Валерия / Он и она
Folder: 2016-06-01 Он и она
Audio file: 01. Валерия, Алексей Глызин - Он и она.flac [03:35.840; FLAC • 967 kbps • 16 bit \ 44100 Hz • stereo; 24,89 MB (26 096 512 B)]
Accuracy: -m8
File 01. Валерия, Алексей Глызин - Он и она - 100% CDDA
————— Summary: —————
This track looks like CDDA with probability 100%.
————————————————————————————————————————————————————————————————————————
ANALYZER:
auCDtect: CD records authenticity detector, version 0.8.2
Copyright (c) 2004 Oleg Berngardt. All rights reserved.
Copyright (c) 2004 Alexander Djourik. All rights reserved.
Time elapsed: 1.732 s
Log created at June 29, 2020 21:38:13
=== 7F8C4FFBF6347B6FEEC72BA64A9F9E18A529C13CB54E39137D5C893509490B1D ===
-

DRM

foobar2000 1.5.1 / Dynamic Range Meter 1.1.1
log date: 2020-06-29 21:36:32
--------------------------------------------------------------------------------
Statistics for: 01-Он и она
Number of samples: 9518400
Duration: 3:36
--------------------------------------------------------------------------------
Left Right
Peak Value: -0.15 dB --- -0.19 dB
Avg RMS: -10.63 dB --- -10.46 dB
DR channel: 8.94 dB --- 8.75 dB
--------------------------------------------------------------------------------
Official DR Value: DR9
Samplerate: 44100 Hz
Channels: 2
Bits per sample: 16
Bitrate: 957 kbps
Codec: FLAC
================================================================================

2016-12-12 - За минуту до снега - 00:03:38


01. Валерия, Олег Газманов - За минуту до снега

auCDtect

CUE Corrector v. 8.3.6 / b. 964 (Feb. 13, 2020)
————————————————————————————————————————————————————————————————————————
Валерия / За минуту до снега
Folder: 2016-12-12 За минуту до снега
Audio file: 01. Валерия, Олег Газманов - За минуту до снега.flac [03:37.907; FLAC • 1031 kbps • 16 bit \ 44100 Hz • stereo; 26,79 MB (28 090 337 B)]
Accuracy: -m8
File 01. Валерия, Олег Газманов - За минуту до снега - 100% CDDA
————— Summary: —————
This track looks like CDDA with probability 100%.
————————————————————————————————————————————————————————————————————————
ANALYZER:
auCDtect: CD records authenticity detector, version 0.8.2
Copyright (c) 2004 Oleg Berngardt. All rights reserved.
Copyright (c) 2004 Alexander Djourik. All rights reserved.
Time elapsed: 1.871 s
Log created at June 29, 2020 21:38:13
=== F176DD6D1C721536BB180061F31C46A5B23059F4973612291803119E2F642EFB ===
-

DRM

foobar2000 1.5.1 / Dynamic Range Meter 1.1.1
log date: 2020-06-29 21:36:33
--------------------------------------------------------------------------------
Statistics for: 01-За минуту до снега
Number of samples: 9609187
Duration: 3:38
--------------------------------------------------------------------------------
Left Right
Peak Value: -0.10 dB --- -0.10 dB
Avg RMS: -8.00 dB --- -8.04 dB
DR channel: 6.55 dB --- 6.60 dB
--------------------------------------------------------------------------------
Official DR Value: DR7
Samplerate: 44100 Hz
Channels: 2
Bits per sample: 16
Bitrate: 1001 kbps
Codec: FLAC
================================================================================

2017-06-21 - Свет моих глаз (Из м/ф "Сказ о Петре и Февронии") - 00:03:27


01. Валерия - Свет моих глаз (Из м/ф "Сказ о Петре и Февронии")

auCDtect

CUE Corrector v. 8.3.6 / b. 964 (Feb. 13, 2020)
————————————————————————————————————————————————————————————————————————
Валерия / Свет моих глаз (Из м/ф "Сказ о Петре и Февронии")
Folder: 2017-06-21 Свет моих глаз (Из м-ф ''Сказ о Петре и Февронии'')
Audio file: 01. Валерия - Свет моих глаз (Из мф Сказ о Петре и Февронии).flac [03:27.133; FLAC • 1031 kbps • 16 bit \ 44100 Hz • stereo; 25,48 MB (26 714 584 B)]
Accuracy: -m8
File 01. Валерия - Свет моих глаз (Из мф Сказ о Петре и Февронии) - 100% CDDA
————— Summary: —————
This track looks like CDDA with probability 100%.
————————————————————————————————————————————————————————————————————————
ANALYZER:
auCDtect: CD records authenticity detector, version 0.8.2
Copyright (c) 2004 Oleg Berngardt. All rights reserved.
Copyright (c) 2004 Alexander Djourik. All rights reserved.
Time elapsed: 1.776 s
Log created at June 29, 2020 21:38:13
=== 7CB03440E91E5BF3ED48C7FADBBFDE65F551CFE4D6D5BE6530F309AC326708FB ===
-

DRM

foobar2000 1.5.1 / Dynamic Range Meter 1.1.1
log date: 2020-06-29 21:36:33
--------------------------------------------------------------------------------
Statistics for: 01-Свет моих глаз (Из м/ф "Сказ о Петре и Февронии")
Number of samples: 9134136
Duration: 3:27
--------------------------------------------------------------------------------
Left Right
Peak Value: -1.00 dB --- -1.00 dB
Avg RMS: -8.01 dB --- -7.96 dB
DR channel: 4.49 dB --- 4.47 dB
--------------------------------------------------------------------------------
Official DR Value: DR4
Samplerate: 44100 Hz
Channels: 2
Bits per sample: 16
Bitrate: 1005 kbps
Codec: FLAC
================================================================================

2017-08-12 - Сбежим в Баку (Жара'17) - 00:04:20


01. Валерия, Emin, Ани Лорак - Сбежим в Баку (Жара'17)

auCDtect

CUE Corrector v. 8.3.6 / b. 964 (Feb. 13, 2020)
————————————————————————————————————————————————————————————————————————
Валерия / Сбежим в Баку (Жара'17)
Folder: 2017-08-12 Сбежим в Баку (Жара'17)
Audio file: 01. Валерия, Emin, Ани Лорак - Сбежим в Баку (Жара'17).flac [04:19.707; FLAC • 942 kbps • 16 bit \ 44100 Hz • stereo; 29,19 MB (30 607 865 B)]
Accuracy: -m8
File 01. Валерия, Emin, Ани Лорак - Сбежим в Баку (Жара'17) - 100% CDDA
————— Summary: —————
This track looks like CDDA with probability 100%.
————————————————————————————————————————————————————————————————————————
ANALYZER:
auCDtect: CD records authenticity detector, version 0.8.2
Copyright (c) 2004 Oleg Berngardt. All rights reserved.
Copyright (c) 2004 Alexander Djourik. All rights reserved.
Time elapsed: 2.241 s
Log created at June 29, 2020 21:38:14
=== 3F0616D8EF6AC5BCA7074420CC604DE17F08BEB73457F151BD7611F7D7FD4FB2 ===
-

DRM

foobar2000 1.5.1 / Dynamic Range Meter 1.1.1
log date: 2020-06-29 21:36:34
--------------------------------------------------------------------------------
Statistics for: 01-Сбежим в Баку (Жара'17)
Number of samples: 11452536
Duration: 4:20
--------------------------------------------------------------------------------
Left Right
Peak Value: -0.30 dB --- -0.30 dB
Avg RMS: -8.72 dB --- -8.71 dB
DR channel: 7.05 dB --- 7.02 dB
--------------------------------------------------------------------------------
Official DR Value: DR7
Samplerate: 44100 Hz
Channels: 2
Bits per sample: 16
Bitrate: 933 kbps
Codec: FLAC
================================================================================

2018-03-07 - Ах, мама - 00:03:00


01. Валерия - Ах, мама

auCDtect

CUE Corrector v. 8.3.6 / b. 964 (Feb. 13, 2020)
————————————————————————————————————————————————————————————————————————
Валерия / Ах, мама
Folder: 2018-03-07 Ах, мама
Audio file: 01. Валерия - Ах, мама.flac [03:00.427; FLAC • 999 kbps • 16 bit \ 44100 Hz • stereo; 21,50 MB (22 544 626 B)]
Accuracy: -m8
File 01. Валерия - Ах, мама - 100% CDDA
————— Summary: —————
This track looks like CDDA with probability 100%.
————————————————————————————————————————————————————————————————————————
ANALYZER:
auCDtect: CD records authenticity detector, version 0.8.2
Copyright (c) 2004 Oleg Berngardt. All rights reserved.
Copyright (c) 2004 Alexander Djourik. All rights reserved.
Time elapsed: 1.551 s
Log created at June 29, 2020 21:38:13
=== 590F91F27B9B64CAD80096270F843FA77362A159E781D65FAD83A601F1A23F3D ===
-

DRM

foobar2000 1.5.1 / Dynamic Range Meter 1.1.1
log date: 2020-06-29 21:36:35
--------------------------------------------------------------------------------
Statistics for: 01-Ах, мама
Number of samples: 7956417
Duration: 3:00
--------------------------------------------------------------------------------
Left Right
Peak Value: -1.09 dB --- -1.09 dB
Avg RMS: -7.47 dB --- -7.55 dB
DR channel: 4.56 dB --- 4.58 dB
--------------------------------------------------------------------------------
Official DR Value: DR5
Samplerate: 44100 Hz
Channels: 2
Bits per sample: 16
Bitrate: 976 kbps
Codec: FLAC
================================================================================

2018-04-05 - Любовь и боль - 00:03:23


01. Валерия - Любовь и боль

auCDtect

CUE Corrector v. 8.3.6 / b. 964 (Feb. 13, 2020)
————————————————————————————————————————————————————————————————————————
Валерия / Любовь и боль
Folder: 2018-04-05 Любовь и боль
Audio file: 01. Валерия - Любовь и боль.flac [03:23.360; FLAC • 910 kbps • 16 bit \ 44100 Hz • stereo; 22,08 MB (23 151 400 B)]
Accuracy: -m8
File 01. Валерия - Любовь и боль - 99% CDDA
————— Summary: —————
This track looks like CDDA with probability 100%.
————————————————————————————————————————————————————————————————————————
ANALYZER:
auCDtect: CD records authenticity detector, version 0.8.2
Copyright (c) 2004 Oleg Berngardt. All rights reserved.
Copyright (c) 2004 Alexander Djourik. All rights reserved.
Time elapsed: 1.647 s
Log created at June 29, 2020 21:38:13
=== 744B3F5F6E3F7D6DDFFADE9117882CEA4A2306872F4129D2E0A8D478CF8151A0 ===
-

DRM

foobar2000 1.5.1 / Dynamic Range Meter 1.1.1
log date: 2020-06-29 21:36:35
--------------------------------------------------------------------------------
Statistics for: 01-Любовь и боль
Number of samples: 8967634
Duration: 3:23
--------------------------------------------------------------------------------
Left Right
Peak Value: -0.20 dB --- -0.20 dB
Avg RMS: -7.81 dB --- -7.68 dB
DR channel: 4.47 dB --- 4.30 dB
--------------------------------------------------------------------------------
Official DR Value: DR4
Samplerate: 44100 Hz
Channels: 2
Bits per sample: 16
Bitrate: 899 kbps
Codec: FLAC
================================================================================

2018-08-10 - Часики - 00:03:20


01. Валерия, Егор Крид - Часики

auCDtect

CUE Corrector v. 8.3.6 / b. 964 (Feb. 13, 2020)
————————————————————————————————————————————————————————————————————————
Валерия / Часики
Folder: 2018-08-10 Часики
Audio file: 01. Валерия, Егор Крид - Часики.flac [03:20.333; FLAC • 991 kbps • 16 bit \ 44100 Hz • stereo; 23,67 MB (24 822 602 B)]
Accuracy: -m8
File 01. Валерия, Егор Крид - Часики - 100% CDDA
————— Summary: —————
This track looks like CDDA with probability 100%.
————————————————————————————————————————————————————————————————————————
ANALYZER:
auCDtect: CD records authenticity detector, version 0.8.2
Copyright (c) 2004 Oleg Berngardt. All rights reserved.
Copyright (c) 2004 Alexander Djourik. All rights reserved.
Time elapsed: 1.713 s
Log created at June 29, 2020 21:38:13
=== 3E33709F6E095784C38BD2163C37FFD08DC9283A4664F0327ADD585293F2D3CB ===
-

DRM

foobar2000 1.5.1 / Dynamic Range Meter 1.1.1
log date: 2020-06-29 21:36:36
--------------------------------------------------------------------------------
Statistics for: 01-Часики
Number of samples: 8834226
Duration: 3:20
--------------------------------------------------------------------------------
Left Right
Peak Value: 0.00 dB --- 0.00 dB
Avg RMS: -7.13 dB --- -7.22 dB
DR channel: 5.43 dB --- 5.59 dB
--------------------------------------------------------------------------------
Official DR Value: DR6
Samplerate: 44100 Hz
Channels: 2
Bits per sample: 16
Bitrate: 956 kbps
Codec: FLAC
================================================================================

2018-10-05 - Поставь эту песню ещё раз (2018 Version) - 00:03:53


01. Валерия - Поставь эту песню ещё раз (2018 Version)

auCDtect

CUE Corrector v. 8.3.6 / b. 964 (Feb. 13, 2020)
————————————————————————————————————————————————————————————————————————
Валерия / Поставь эту песню ещё раз (2018 Version)
Folder: 2018-10-05 Поставь эту песню ещё раз (2018 Version)
Audio file: 01. Валерия - Поставь эту песню ещё раз (2018 Version).flac [03:53.307; FLAC • 919 kbps • 16 bit \ 44100 Hz • stereo; 25,59 MB (26 829 185 B)]
Accuracy: -m8
File 01. Валерия - Поставь эту песню ещё раз (2018 Version) - 100% CDDA
————— Summary: —————
This track looks like CDDA with probability 100%.
————————————————————————————————————————————————————————————————————————
ANALYZER:
auCDtect: CD records authenticity detector, version 0.8.2
Copyright (c) 2004 Oleg Berngardt. All rights reserved.
Copyright (c) 2004 Alexander Djourik. All rights reserved.
Time elapsed: 1.734 s
Log created at June 29, 2020 21:38:16
=== D1FC6DBD3F2354AF153809628CE9017F129178F862ADA8E724FDE263B8B9B6C1 ===
-

DRM

foobar2000 1.5.1 / Dynamic Range Meter 1.1.1
log date: 2020-06-29 21:36:36
--------------------------------------------------------------------------------
Statistics for: 01-Поставь эту песню ещё раз (2018 Version)
Number of samples: 10288709
Duration: 3:53
--------------------------------------------------------------------------------
Left Right
Peak Value: -1.11 dB --- -1.11 dB
Avg RMS: -5.97 dB --- -6.00 dB
DR channel: 3.77 dB --- 3.74 dB
--------------------------------------------------------------------------------
Official DR Value: DR4
Samplerate: 44100 Hz
Channels: 2
Bits per sample: 16
Bitrate: 908 kbps
Codec: FLAC
================================================================================

2018-11-08 - Я лечу за тобой (Из к/ф "Пришелец") - 00:03:13


01. Валерия - Я лечу за тобой (Из к/ф "Пришелец")

auCDtect

CUE Corrector v. 8.3.6 / b. 964 (Feb. 13, 2020)
————————————————————————————————————————————————————————————————————————
Валерия / Я лечу за тобой (Из к/ф "Пришелец")
Folder: 2018-11-08 Я лечу за тобой (Из к-ф ''Пришелец'')
Audio file: 01. Валерия - Я лечу за тобой (Из кф Пришелец).flac [03:12.667; FLAC • 945 kbps • 16 bit \ 44100 Hz • stereo; 21,73 MB (22 781 956 B)]
Accuracy: -m8
File 01. Валерия - Я лечу за тобой (Из кф Пришелец) - 100% CDDA
————— Summary: —————
This track looks like CDDA with probability 100%.
————————————————————————————————————————————————————————————————————————
ANALYZER:
auCDtect: CD records authenticity detector, version 0.8.2
Copyright (c) 2004 Oleg Berngardt. All rights reserved.
Copyright (c) 2004 Alexander Djourik. All rights reserved.
Time elapsed: 1.652 s
Log created at June 29, 2020 21:38:16
=== A192D11C7BF0B79BFAF183193E59FF40D2AAF1A039DDB05FAC1FF95B75BAC525 ===
-

DRM

foobar2000 1.5.1 / Dynamic Range Meter 1.1.1
log date: 2020-06-29 21:36:37
--------------------------------------------------------------------------------
Statistics for: 01-Я лечу за тобой (Из к/ф "Пришелец")
Number of samples: 8496406
Duration: 3:13
--------------------------------------------------------------------------------
Left Right
Peak Value: -1.01 dB --- -1.01 dB
Avg RMS: -10.07 dB --- -10.11 dB
DR channel: 6.91 dB --- 6.86 dB
--------------------------------------------------------------------------------
Official DR Value: DR7
Samplerate: 44100 Hz
Channels: 2
Bits per sample: 16
Bitrate: 919 kbps
Codec: FLAC
================================================================================

2019-02-14 - Верни мне надежду - 00:03:32


01. Валерия - Верни мне надежду

auCDtect

CUE Corrector v. 8.3.6 / b. 964 (Feb. 13, 2020)
————————————————————————————————————————————————————————————————————————
Валерия / Верни мне надежду
Folder: 2019-02-14 Верни мне надежду
Audio file: 01. Валерия - Верни мне надежду.flac [03:31.973; FLAC • 1043 kbps • 16 bit \ 44100 Hz • stereo; 26,36 MB (27 636 660 B)]
Accuracy: -m8
File 01. Валерия - Верни мне надежду - 100% CDDA
————— Summary: —————
This track looks like CDDA with probability 100%.
————————————————————————————————————————————————————————————————————————
ANALYZER:
auCDtect: CD records authenticity detector, version 0.8.2
Copyright (c) 2004 Oleg Berngardt. All rights reserved.
Copyright (c) 2004 Alexander Djourik. All rights reserved.
Time elapsed: 1.678 s
Log created at June 29, 2020 21:38:16
=== D40D50F3C729656C67B03DB0AE37E89759358D49173BEA43D856095F6C5E81B2 ===
-

DRM

foobar2000 1.5.1 / Dynamic Range Meter 1.1.1
log date: 2020-06-29 21:36:38
--------------------------------------------------------------------------------
Statistics for: 01-Верни мне надежду
Number of samples: 9347842
Duration: 3:32
--------------------------------------------------------------------------------
Left Right
Peak Value: -1.30 dB --- -1.30 dB
Avg RMS: -8.24 dB --- -8.10 dB
DR channel: 4.84 dB --- 4.69 dB
--------------------------------------------------------------------------------
Official DR Value: DR5
Samplerate: 44100 Hz
Channels: 2
Bits per sample: 16
Bitrate: 1017 kbps
Codec: FLAC
================================================================================

2019-04-17 - Мы не похожи - 00:03:10


01. Валерия - Мы не похожи

auCDtect

CUE Corrector v. 8.3.6 / b. 964 (Feb. 13, 2020)
————————————————————————————————————————————————————————————————————————
Валерия / Мы не похожи
Folder: 2019-04-17 Мы не похожи
Audio file: 01. Валерия - Мы не похожи.flac [03:10.480; FLAC • 938 kbps • 16 bit \ 44100 Hz • stereo; 21,30 MB (22 337 497 B)]
Accuracy: -m8
File 01. Валерия - Мы не похожи - 100% CDDA
————— Summary: —————
This track looks like CDDA with probability 100%.
————————————————————————————————————————————————————————————————————————
ANALYZER:
auCDtect: CD records authenticity detector, version 0.8.2
Copyright (c) 2004 Oleg Berngardt. All rights reserved.
Copyright (c) 2004 Alexander Djourik. All rights reserved.
Time elapsed: 1.628 s
Log created at June 29, 2020 21:38:16
=== AE84960F9887148FDAA0154955867D0E8171647667ACC0C2FAB7A2EDCD4FD33F ===
-

DRM

foobar2000 1.5.1 / Dynamic Range Meter 1.1.1
log date: 2020-06-29 21:36:38
--------------------------------------------------------------------------------
Statistics for: 01-Мы не похожи
Number of samples: 8399605
Duration: 3:10
--------------------------------------------------------------------------------
Left Right
Peak Value: -1.05 dB --- -1.05 dB
Avg RMS: -9.15 dB --- -9.27 dB
DR channel: 6.24 dB --- 6.32 dB
--------------------------------------------------------------------------------
Official DR Value: DR6
Samplerate: 44100 Hz
Channels: 2
Bits per sample: 16
Bitrate: 917 kbps
Codec: FLAC
================================================================================

2019-06-28 - Нет шанса - 00:03:30


01. Валерия - Нет шанса

auCDtect

CUE Corrector v. 8.3.6 / b. 964 (Feb. 13, 2020)
————————————————————————————————————————————————————————————————————————
Валерия / Нет шанса
Folder: 2019-06-28 Нет шанса
Audio file: 01. Валерия - Нет шанса.flac [03:29.840; FLAC • 1020 kbps • 16 bit \ 44100 Hz • stereo; 25,53 MB (26 770 430 B)]
Accuracy: -m8
File 01. Валерия - Нет шанса - 99% CDDA
————— Summary: —————
This track looks like CDDA with probability 100%.
————————————————————————————————————————————————————————————————————————
ANALYZER:
auCDtect: CD records authenticity detector, version 0.8.2
Copyright (c) 2004 Oleg Berngardt. All rights reserved.
Copyright (c) 2004 Alexander Djourik. All rights reserved.
Time elapsed: 1.666 s
Log created at June 29, 2020 21:38:16
=== AB2C07E2DA6A15986ACF77DBF136E97761776EF71F580279460FD6233360569A ===
-

DRM

foobar2000 1.5.1 / Dynamic Range Meter 1.1.1
log date: 2020-06-29 21:36:39
--------------------------------------------------------------------------------
Statistics for: 01-Нет шанса
Number of samples: 9253510
Duration: 3:30
--------------------------------------------------------------------------------
Left Right
Peak Value: -1.30 dB --- -1.30 dB
Avg RMS: -7.13 dB --- -6.49 dB
DR channel: 4.99 dB --- 4.39 dB
--------------------------------------------------------------------------------
Official DR Value: DR5
Samplerate: 44100 Hz
Channels: 2
Bits per sample: 16
Bitrate: 1010 kbps
Codec: FLAC
================================================================================

2019-12-04 - Тысячи историй - 00:03:00


01. Валерия, НАZИМА - Тысячи историй

auCDtect

CUE Corrector v. 8.3.6 / b. 964 (Feb. 13, 2020)
————————————————————————————————————————————————————————————————————————
Валерия / Тысячи историй
Folder: 2019-12-04 Тысячи историй
Audio file: 01. Валерия, НАZИМА - Тысячи историй.flac [02:59.613; FLAC • 1036 kbps • 16 bit \ 44100 Hz • stereo; 22,20 MB (23 280 720 B)]
Accuracy: -m8
File 01. Валерия, НАZИМА - Тысячи историй - 100% CDDA
————— Summary: —————
This track looks like CDDA with probability 100%.
————————————————————————————————————————————————————————————————————————
ANALYZER:
auCDtect: CD records authenticity detector, version 0.8.2
Copyright (c) 2004 Oleg Berngardt. All rights reserved.
Copyright (c) 2004 Alexander Djourik. All rights reserved.
Time elapsed: 1.537 s
Log created at June 29, 2020 21:38:16
=== 4B330C7BB5D53951A957C09CD1EF7A8109A91A9BC49145D7EF4F369CC761C05B ===
-

DRM

foobar2000 1.5.1 / Dynamic Range Meter 1.1.1
log date: 2020-06-29 21:36:39
--------------------------------------------------------------------------------
Statistics for: 01-Тысячи историй
Number of samples: 7920593
Duration: 3:00
--------------------------------------------------------------------------------
Left Right
Peak Value: 0.00 dB --- 0.00 dB
Avg RMS: -6.71 dB --- -6.73 dB
DR channel: 4.88 dB --- 4.86 dB
--------------------------------------------------------------------------------
Official DR Value: DR5
Samplerate: 44100 Hz
Channels: 2
Bits per sample: 16
Bitrate: 1009 kbps
Codec: FLAC
================================================================================

2020-03-06 - Кто вам сказал? - 00:03:43


01. Валерия, Тамара Гвердцители, Маша Гончарук - Кто вам сказал?

auCDtect

CUE Corrector v. 8.3.6 / b. 964 (Feb. 13, 2020)
————————————————————————————————————————————————————————————————————————
Валерия / Кто вам сказал?
Folder: 2020-03-06 Кто вам сказал
Audio file: 01. Валерия, Тамара Гвердцители, Маша Гончарук - Кто вам сказал.flac [03:43.440; FLAC • 835 kbps • 16 bit \ 44100 Hz • stereo; 22,26 MB (23 344 027 B)]
Accuracy: -m8
File 01. Валерия, Тамара Гвердцители, Маша Гончарук - Кто вам сказал - 100% CDDA
————— Summary: —————
This track looks like CDDA with probability 100%.
————————————————————————————————————————————————————————————————————————
ANALYZER:
auCDtect: CD records authenticity detector, version 0.8.2
Copyright (c) 2004 Oleg Berngardt. All rights reserved.
Copyright (c) 2004 Alexander Djourik. All rights reserved.
Time elapsed: 1.672 s
Log created at June 29, 2020 21:38:17
=== 3EE371C04884C3A78371DA6D53F1DC74DAD71929B6067FCA5BA46C3D1CB06A00 ===
-

DRM

foobar2000 1.5.1 / Dynamic Range Meter 1.1.1
log date: 2020-06-29 21:36:40
--------------------------------------------------------------------------------
Statistics for: 01-Кто вам сказал?
Number of samples: 9853656
Duration: 3:43
--------------------------------------------------------------------------------
Left Right
Peak Value: -0.53 dB --- -0.53 dB
Avg RMS: -11.45 dB --- -11.41 dB
DR channel: 8.44 dB --- 8.34 dB
--------------------------------------------------------------------------------
Official DR Value: DR8
Samplerate: 44100 Hz
Channels: 2
Bits per sample: 16
Bitrate: 806 kbps
Codec: FLAC
================================================================================

2020-04-10 - До предела - 00:03:32


01. Валерия, Максим Фадеев - До предела

auCDtect

CUE Corrector v. 8.3.6 / b. 964 (Feb. 13, 2020)
————————————————————————————————————————————————————————————————————————
Валерия / До предела
Folder: 2020-04-10 До предела
Audio file: 01. Валерия, Максим Фадеев - До предела.flac [03:31.600; FLAC • 945 kbps • 16 bit \ 44100 Hz • stereo; 23,84 MB (24 996 009 B)]
Accuracy: -m8
File 01. Валерия, Максим Фадеев - До предела - 100% CDDA
————— Summary: —————
This track looks like CDDA with probability 100%.
————————————————————————————————————————————————————————————————————————
ANALYZER:
auCDtect: CD records authenticity detector, version 0.8.2
Copyright (c) 2004 Oleg Berngardt. All rights reserved.
Copyright (c) 2004 Alexander Djourik. All rights reserved.
Time elapsed: 1.638 s
Log created at June 29, 2020 21:38:20
=== D5C5E0E4A9CBBCC0BD947335564549ACAA983FE677F10BA6ECEC20AD27BB7413 ===
-

DRM

foobar2000 1.5.1 / Dynamic Range Meter 1.1.1
log date: 2020-06-29 21:36:40
--------------------------------------------------------------------------------
Statistics for: 01-До предела
Number of samples: 9331159
Duration: 3:32
--------------------------------------------------------------------------------
Left Right
Peak Value: 0.00 dB --- 0.00 dB
Avg RMS: -9.73 dB --- -10.01 dB
DR channel: 7.37 dB --- 7.57 dB
--------------------------------------------------------------------------------
Official DR Value: DR7
Samplerate: 44100 Hz
Channels: 2
Bits per sample: 16
Bitrate: 924 kbps
Codec: FLAC
================================================================================

2020-05-09 - Возложите на море венки - 00:02:56


01. Валерия, Игорь Николаев - Возложите на море венки

auCDtect

CUE Corrector v. 8.3.6 / b. 964 (Feb. 13, 2020)
————————————————————————————————————————————————————————————————————————
Валерия / Возложите на море венки
Folder: 2020-05-09 Возложите на море венки
Audio file: 01. Валерия, Игорь Николаев - Возложите на море венки.flac [02:56.000; FLAC • 935 kbps • 16 bit \ 44100 Hz • stereo; 19,63 MB (20 580 375 B)]
Accuracy: -m8
File 01. Валерия, Игорь Николаев - Возложите на море венки - 100% CDDA
————— Summary: —————
This track looks like CDDA with probability 100%.
————————————————————————————————————————————————————————————————————————
ANALYZER:
auCDtect: CD records authenticity detector, version 0.8.2
Copyright (c) 2004 Oleg Berngardt. All rights reserved.
Copyright (c) 2004 Alexander Djourik. All rights reserved.
Time elapsed: 1.258 s
Log created at June 29, 2020 21:38:19
=== 1AC1925A6606060E1A83A82A597D1ECDCBBF1C1C5813A824953232B2D0478AF8 ===
-

DRM

foobar2000 1.5.1 / Dynamic Range Meter 1.1.1
log date: 2020-06-29 21:36:41
--------------------------------------------------------------------------------
Statistics for: 01-Возложите на море венки
Number of samples: 7761372
Duration: 2:56
--------------------------------------------------------------------------------
Left Right
Peak Value: 0.00 dB --- 0.00 dB
Avg RMS: -9.82 dB --- -9.53 dB
DR channel: 6.38 dB --- 6.16 dB
--------------------------------------------------------------------------------
Official DR Value: DR6
Samplerate: 44100 Hz
Channels: 2
Bits per sample: 16
Bitrate: 889 kbps
Codec: FLAC
================================================================================

2020-06-05 - Капелькою - 00:03:11


01. Валерия, Artik & Asti, DJ LOYZA - Капелькою

auCDtect

CUE Corrector v. 8.3.6 / b. 964 (Feb. 13, 2020)
————————————————————————————————————————————————————————————————————————
Валерия / Капелькою
Folder: 2020-06-05 Капелькою
Audio file: 01. Валерия, Artik & Asti, DJ LOYZA - Капелькою.flac [03:11.187; FLAC • 1066 kbps • 16 bit \ 44100 Hz • stereo; 24,31 MB (25 495 180 B)]
Accuracy: -m8
File 01. Валерия, Artik & Asti, DJ LOYZA - Капелькою - 100% CDDA
————— Summary: —————
This track looks like CDDA with probability 100%.
————————————————————————————————————————————————————————————————————————
ANALYZER:
auCDtect: CD records authenticity detector, version 0.8.2
Copyright (c) 2004 Oleg Berngardt. All rights reserved.
Copyright (c) 2004 Alexander Djourik. All rights reserved.
Time elapsed: 1.418 s
Log created at June 29, 2020 21:38:19
=== 027A87F766D4D467797E62DE1301E4932C09B2A1E65E74AF5017D5AA8588D0C0 ===
-

DRM

foobar2000 1.5.1 / Dynamic Range Meter 1.1.1
log date: 2020-06-29 21:36:41
--------------------------------------------------------------------------------
Statistics for: 01-Капелькою
Number of samples: 8431322
Duration: 3:11
--------------------------------------------------------------------------------
Left Right
Peak Value: -0.30 dB --- -0.30 dB
Avg RMS: -6.34 dB --- -6.38 dB
DR channel: 4.97 dB --- 5.00 dB
--------------------------------------------------------------------------------
Official DR Value: DR5
Samplerate: 44100 Hz
Channels: 2
Bits per sample: 16
Bitrate: 1036 kbps
Codec: FLAC
================================================================================