СУМЕРЕЧНАЯ ЗОНАInto The Twilight Zone- Год выпуска: 2020
Страна: США
Жанр: Фантастика, драма, фэнтези, ужасы
Продолжительность: ~00:40:00
Перевод: Профессиональный (многоголосый закадровый) «Novamedia»-Режиссёр: Матиас Хендл, Саймон Кинберг, Крэйг Уилльям Макнейлл-В ролях: Джордан Пил, Лесли Мирза, Морена Баккарин, Фердинанд, Питер Грант, Йен Хоуз, Диарра Килпэтрик, Адам Стэффорд, Таисса Фармига, Крис О`Дауд, Айк Баринхолц, Кумэйл Нанджиани, Адам Скотт-Описание: Перезагрузка классического сериала “Сумеречная зона” 1959 года. Вы отправляетесь в путешествие в другое измерение, измерение не только зрения и слуха, но и разума. Путешествие в удивительную страну, границы которой — это границы воображения. Этот указатель впереди — ваша следующая остановка, Сумеречная зона!
Каждая серия – отдельная жуткая история про разных людей, которые попадают в нестандартные ситуации. Конец всех рассказов абсолютно непредсказуем. В нашем мире случается множество необъяснимых вещей, когда реальность переплетается с фантастикой. Все истории связаны с таинственной Сумеречной зоной. Это совершенно другое измерение, с помощью которого можно повлиять на события, случившиеся в реальности, или которые еще только произойдут в будущем. Паранормальные и сюрреалистические события делают фильм ярким и запоминающимся. Зритель вместе с главными героями совершает невероятные путешествия по просторам Вселенной и узнает тайны мироздания. Оказывается, что возможности человеческого разума беспредельны. Мир не ограничивают никакие рамки, а есть только люди, которые сдерживают себя и не раскрывают свои возможности.-Доп. информация: Без рекламных ВидеоАудио вставок-Всем нетерпеливым, канал на отдачу маленький.
Ныть где сид, поддайте скорости не нужно. Не нравится - идите мимо, найдите Альтернативные раздачи, без негативных комментариев здесь.
-Альтернативные раздачи
Сэмпл-Качество: WEBRip
Формат: AVI
Видео: XviD, 720x400 (16:9), 25.000 fps, ~1500 kbps
Аудио Rus: MP3, 48 kHz, 2 ch, 128 kbps
Субтитры: отсутствуют
Реклама: отсутствует

MediaInfo

Код:
Полное имя : Twilight.Zone.2019.S02.WEBRip.Rus.Novamedia\The.Twilight.Zone.2019.S02E01.WEBRip.Rus.Novamedia.JuSSiKa.avi
Формат : AVI
Формат/Информация : Audio Video Interleave
Размер файла : 500 Мбайт
Продолжительность : 41 м. 17 с.
Общий поток : 1694 Кбит/сек
Программа кодирования : VirtualDubMod 1.5.10.3 | www.virtualdub-fr.org || (build 2550/release)
Библиотека кодирования : VirtualDubMod build 2550/release
Видео
Идентификатор : 0
Формат : MPEG-4 Visual
Профиль формата : Advanced [email protected]
Настройки формата : BVOP1
Параметр BVOP формата : 1
Параметр QPel формата : Нет
Параметр GMC формата : Без точки перехода
Параметр матрицы формата : Default (H.263)
Идентификатор кодека : XVID
Идентификатор кодека/Подсказка : XviD
Продолжительность : 41 м. 17 с.
Битрейт : 1556 Кбит/сек
Ширина : 720 пикселей
Высота : 400 пикселей
Соотношение сторон : 16:9
Частота кадров : 25,000 кадров/сек
Цветовое пространство : YUV
Субдискретизация насыщенности : 4:2:0
Битовая глубина : 8 бит
Тип развёртки : Прогрессивная
Метод сжатия : С потерями
Бит/(Пиксели*Кадры) : 0.216
Размер потока : 460 Мбайт (92%)
Библиотека кодирования : XviD 1.2.1 (UTC 2008-12-04)
Аудио
Идентификатор : 1
Формат : MPEG Audio
Версия формата : Version 1
Профиль формата : Layer 3
Идентификатор кодека : 55
Идентификатор кодека/Подсказка : MP3
Продолжительность : 41 м. 17 с.
Вид битрейта : Постоянный
Битрейт : 128 Кбит/сек
Каналы : 2 канала
Частота : 48,0 КГц
Метод сжатия : С потерями
Размер потока : 37,8 Мбайт (8%)
Выравнивание : Соединение по промежуткам
Продолжительность промежутка : 40 мс. (1,00 видеокадр)
Время предзагрузки промежутка : 504 мс.
Библиотека кодирования : LAME3.99r
Настройки программы : -m s -V 4 -q 2 -lowpass 17 -b 128

Скриншоты

Внимание! Раздача ведётся путём добавления новых серий

Внимание! Раздача ведётся путём добавления новых серий; при каждом добавлении создаётся новый торрент. Чтобы начать докачку новой серии, пользователям необходимо сделать следующее:
(1) остановить скачивание,
(2) удалить старый торрент у себя из клиента (старые серии удалять не надо),
(3) скачать новый торрент и запустить его у себя в клиенте вместо старого, при этом указать клиенту путь в старую папку куда и должно происходить скачивание новых серий.
Ваш клиент при этом должен произвести хеширование (проверку) старой папки (если не производит сам - помогите ему сделать это), и будет докачивать только те серии которых у вас ещё нет. Старые серии при этом не удаляются, а продолжают раздаваться!
Eсли вы уже удалили старые серии, то предотвратить повторную закачку старых серий можно, отжав галочку в соответствующих местах при запуске нового торрента. По возможности, желательно не удалять старые серии как можно дольше чтобы релизёр не столько продолжал раздавать старые серии, а смог сконцентрироваться на новых.