Мальчик / Boy- Страна: Новая Зеландия
Жанр: Комедия, драма
Год выпуска: 2010
Продолжительность: 01:27:58-Перевод: Профессиональный (многоголосый закадровый) Good People 18+ (присутствует процент нецензурной лексики)
Субтитры: нет
Оригинальная аудиодорожка: английский-Режиссер: Таика Вайтити / Taika Waititi-В ролях: Джеймс Роллестон, Те Ахо Ахо Эктоун-Уиту, Таика Вайтити, Моранги Тихоре, Шерили Мартин, РиккиЛи Вайпука-Рассел, Хэйз Ревети, Маакариини Батлер, Раджвиндер Эрия, Манихера Рангиуайя-Описание: 1984 год. Майкл Джексон — король даже в забытом богом местечке Уаихао Бэй, что в Новой Зеландии. 11-летний Аламейн, которого все зовут просто Мальчик, живет на ферме с бабушкой, козлом и младшим братом Рокки, считающем, что обладает магической силой. В один прекрасный день объявляется отец Мальчика, о котором парень всем вокруг рассказывал героические небылицы. Но на деле папаша оказывается придурковатым неудачником, вернувшимся только за тем, чтобы найти закопанный несколько лет назад мешок с деньгами…-Доп. информация: Замечательный фильм Тайки Вайтити теперь в хорошем качестве, с хорошим переводом и озвучкой. Без рекламы. Приятного просмотра!-Сэмпл: скачать
Тип релиза: BDRip 1080p
Контейнер: MKV
Видео: MPEG4/AVC, 1.85:1, 23,976 (24000/1001) FPS, 1920x1040p, 13300 Mb/s
Аудио: Русский, Good People, AC-3, 48.0 kHz, 5.1, 640 kb/s
Аудио 2: Английский, Оригинал, DTS, 48.0 kHz, 5.1, 1509 kb/s, 24 bit

MediaInfo

General
Unique ID : 224742441963103065788378630137146345969 (0xA913D1E35666DD9184B668940F4D89F1)
Complete name : Boy.2010.1080p.BluRay.DD5.1.H.264-GoodPeople.mkv
Format : Matroska
Format version : Version 4
File size : 9.68 GiB
Duration : 1 h 27 min
Overall bit rate : 15.8 Mb/s
Encoded date : UTC 2020-06-28 13:27:52
Writing application : mkvmerge v17.0.0 ('Be Ur Friend') 64-bit
Writing library : libebml v1.3.5 + libmatroska v1.4.8
Video
ID : 1
Format : AVC
Format/Info : Advanced Video Codec
Format profile : [email protected]
Format settings : CABAC / 4 Ref Frames
Format settings, CABAC : Yes
Format settings, Reference frames : 4 frames
Codec ID : V_MPEG4/ISO/AVC
Duration : 1 h 27 min
Bit rate : 13.6 Mb/s
Width : 1 920 pixels
Height : 1 040 pixels
Display aspect ratio : 1.85:1
Frame rate mode : Constant
Frame rate : 23.976 (24000/1001) FPS
Color space : YUV
Chroma subsampling : 4:2:0
Bit depth : 8 bits
Scan type : Progressive
Bits/(Pixel*Frame) : 0.284
Stream size : 8.36 GiB (86%)
Writing library : x264 core 133 r2334+704+50 a7549b7 tMod [[email protected]:2:0 X86_64]
Encoding settings : cabac=1 / ref=4 / deblock=1:-3:-3 / analyse=0x3:0x113 / me=umh / subme=10 / psy=1 / fade_compensate=0.00 / psy_rd=1.05:0.00 / mixed_ref=1 / me_range=32 / chroma_me=1 / trellis=2 / 8x8dct=1 / cqm=0 / deadzone=21,11 / fast_pskip=1 / chroma_qp_offset=-2 / threads=64 / lookahead_threads=8 / sliced_threads=0 / nr=0 / decimate=1 / interlaced=0 / bluray_compat=0 / constrained_intra=0 / fgo=0 / bframes=8 / b_pyramid=2 / b_adapt=2 / b_bias=0 / direct=3 / weightb=1 / open_gop=0 / weightp=2 / keyint=240 / keyint_min=23 / scenecut=40 / intra_refresh=0 / rc_lookahead=50 / rc=crf / mbtree=1 / crf=19.0000 / qcomp=0.70 / qpmin=0 / qpmax=69 / qpstep=4 / vbv_maxrate=50000 / vbv_bufsize=50000 / crf_max=0.0 / nal_hrd=none / ip_ratio=1.40 / aq=4:0.90 / aq-sensitivity=10.00 / aq-factor=1.00:1.00:1.00 / aq2=0 / aq3=0
Language : English
Default : Yes
Forced : No
Audio #1
ID : 2
Format : AC-3
Format/Info : Audio Coding 3
Commercial name : Dolby Digital
Codec ID : A_AC3
Duration : 1 h 27 min
Bit rate mode : Constant
Bit rate : 640 kb/s
Channel(s) : 6 channels
Channel layout : L R C LFE Ls Rs
Sampling rate : 48.0 kHz
Frame rate : 31.250 FPS (1536 SPF)
Compression mode : Lossy
Stream size : 403 MiB (4%)
Language : Russian
Service kind : Complete Main
Default : Yes
Forced : No
Audio #2
ID : 3
Format : DTS
Format/Info : Digital Theater Systems
Codec ID : A_DTS
Duration : 1 h 27 min
Bit rate mode : Constant
Bit rate : 1 509 kb/s
Channel(s) : 6 channels
Channel layout : C L R Ls Rs LFE
Sampling rate : 48.0 kHz
Frame rate : 93.750 FPS (512 SPF)
Bit depth : 24 bits
Compression mode : Lossy
Stream size : 949 MiB (10%)
Language : English
Default : No
Forced : No
Menu
00:00:00.000 : en:00:00:00.000
00:08:00.438 : en:00:08:00.438
00:13:38.276 : en:00:13:38.276
00:21:20.988 : en:00:21:20.988
00:28:50.062 : en:00:28:50.062
00:37:39.007 : en:00:37:39.007
00:45:08.247 : en:00:45:08.247
00:51:07.815 : en:00:51:07.815
00:59:24.603 : en:00:59:24.603
01:05:42.730 : en:01:05:42.730
01:12:55.705 : en:01:12:55.705
01:17:06.539 : en:01:17:06.539

Скриншоты