Принц Щелкунчик / Щелкунчик / The Nutcracker Prince
«Join us in a classic tale of adventure, romance, bravery and a really mean mouse»
Страна: Канада
Жанр: Мультфильм
Продолжительность: 1990
Год выпуска: 01:10:21
Перевод: Авторский (одноголосый закадровый) Константин Дьяконов
Русские субтитры: нет
Режиссёр: Пол Шибли / Paul Schibli
Роли озвучивали: Кифер Сазерленд Меган Фоллоуз, Майк МакДональд, Питер О’Тул,
Филлис Диллер, Питер Борецки, Лен Карлсон, Марвин Голдхар, Линн Горман, Кит Хэмпшир
Описание: Наступил Сочельник, канун Рождества, и все члены семьи Штальбаумов радостно
разворачивают свои рождественские подарки. Когда восторги улеглись, семилетняя Клара
получает еще один, весьма необыкновенный подарок — таинственного Щелкунчика.
Злая ведьма Мышильда заколдовала племянника ее любимого крестного Дроссельмейера и
превратила его в деревянную игрушку — Щелкунчика. Чтобы снять заклятие Щелкунчик должен
завоевать любовь Клары и сразить злобного мышиного короля.
Доп. информация: Дорожка с К. Дьяконовым синхронизирована и наложена ale_x2008 при помощи Adobe Audition, Sony Vegas и VirtualDubMod.
За оцифрованную с VHS дорожку благодарим - Raptorio Rio

Релиз
Семпл: https://yadi.sk/i/G--X9yKjJptX3Q
Качество: DVDRip
Формат: AVI
Видео: XviD build 73, 704x528 (1.33:1), 25 fps, 2348 kbps avg, 0.25 bit/pixel
Аудио: AC3 Dolby Digital, 48000Hz, 2/0 (L,R) ch (mono), 192 kbps avg
Аудио 2: 48 kHz, AC3 Dolby Digital, 2/0 (L,R) ch, ~192 kbps Eng
Субтитры: отсутствуют

Подробные технические данные

Принц Щелкунчик (The Nutcracker Prince) [by ale_x2008].avi
Format : AVI
Format/Info : Audio Video Interleave
File size : 1.35 GiB
Duration : 1 h 10 min
Overall bit rate : 2 747 kb/s
Movie name : Принц Щелкунчик (The Nutcracker Prince) [by ale_x2008]
Director : by ale_X2008
Writing application : VirtualDubMod 1.5.10.2 (build 2540/release)
Copyright : Edich2
Comment : RuTracker.org
Video
ID : 0
Format : MPEG-4 Visual
Format profile : Advanced [email protected]
Format settings : BVOP2 / Custom Matrix
Format settings, BVOP : 2
Format settings, QPel : No
Format settings, GMC : No warppoints
Format settings, Matrix : Custom
Codec ID : XVID
Codec ID/Hint : XviD
Duration : 1 h 10 min
Bit rate : 2 349 kb/s
Width : 704 pixels
Height : 528 pixels
Display aspect ratio : 4:3
Frame rate : 25.000 FPS
Color space : YUV
Chroma subsampling : 4:2:0
Bit depth : 8 bits
Scan type : Progressive
Compression mode : Lossy
Bits/(Pixel*Frame) : 0.253
Stream size : 1.15 GiB (85%)
Writing library : XviD 73
Audio #1
ID : 1
Format : AC-3
Format/Info : Audio Coding 3
Commercial name : Dolby Digital
Codec ID : 2000
Duration : 1 h 10 min
Bit rate mode : Constant
Bit rate : 192 kb/s
Channel(s) : 2 channels
Channel layout : L R
Sampling rate : 48.0 kHz
Frame rate : 31.250 FPS (1536 SPF)
Compression mode : Lossy
Stream size : 96.6 MiB (7%)
Alignment : Split across interleaves
Interleave, duration : 40 ms (1.00 video frame)
Interleave, preload duratio : 500 ms
Service kind : Complete Main
Audio #2
ID : 2
Format : AC-3
Format/Info : Audio Coding 3
Commercial name : Dolby Digital
Codec ID : 2000
Duration : 1 h 10 min
Bit rate mode : Constant
Bit rate : 192 kb/s
Channel(s) : 2 channels
Channel layout : L R
Sampling rate : 48.0 kHz
Frame rate : 31.250 FPS (1536 SPF)
Compression mode : Lossy
Stream size : 96.6 MiB (7%)
Alignment : Split across interleaves
Interleave, duration : 40 ms (1.00 video frame)
Interleave, preload duratio : 500 ms
Service kind : Complete Main

Скриншоты