Потерянное звено / Missing Link
«Очень большое мохнатое доброе научное открытие»
- Страна: США, Канада
Production Co: Laika Entertainment, Digital One See
Жанр: мультфильм, фэнтези, комедия, приключения, семейный
Год выпуска: 2019
Продолжительность: 01:34:25-Перевод: Профессиональный (дублированный) | iTunes
Субтитры: Rus (Forced), Eng (Forced, SDH)
Оригинальная аудиодорожка: Eng-Режиссер: Крис Батлер / Chris Butler-В ролях:
Хью Джекман, Дэвид Уоллиамс, Стивен Фрай, Мэтт Лукас, Зак Галифианакис, Тимоти Олифант, Зои Салдана, Эмма Томпсон, Амрита Ачария, Чинг Валдес-Аран-Описание:Бесстрашный натуралист и исследователь Лайонел Фрост поставил перед собой задачу рассказать миру о существовании разных созданий, о которых говорят только в легендах. Его новым открытием становится Линк, так называемое «недостающее звено», связывающее человечество с его предками по эволюционной лестнице.-
«Потерянное звено» (англ. Missing Link) — полнометражный кукольный анимационный фильм, выполненный по технологии stop motion. Главных героев картины озвучили Хью Джекман, Зои Салдана и Тимоти Олифант-Релиз:


IMDb: 6.70 (14 747)
Sample
Качество видео: BDRip 1080p | Missing.Link.2019.BDREMUX 1080p
Формат видео: MKV
Видео: AVC 13.2 Mb/s 1920 x 800 (2.400) 23.976 fps
Аудио: AC-3 384 kb/s 6 channels, 48.0 kHz | RUS DUB iTunes
Аудио 2: DTS 1509 kb/s 6 channels, 48.0 kHz | ENG

MediaInfo | Log

Log

x264 [info]: frame I:1199 Avg QP:12.23 size:278310
x264 [info]: frame P:31502 Avg QP:13.49 size:123552
x264 [info]: frame B:103139 Avg QP:15.16 size: 49451
x264 [info]: consecutive B-frames: 3.2% 3.1% 14.3% 15.7% 15.6% 36.2% 5.8% 2.3% 1.6% 0.7% 1.6%
x264 [info]: mb I I16..4: 11.5% 63.5% 25.0%
x264 [info]: mb P I16..4: 3.0% 23.3% 4.9% P16..4: 22.3% 24.3% 13.4% 4.5% 1.0% skip: 3.5%
x264 [info]: mb B I16..4: 0.8% 6.1% 0.8% B16..8: 26.6% 23.4% 5.9% direct:12.4% skip:23.9% L0:42.8% L1:35.7% BI:21.5%
x264 [info]: 8x8 transform intra:75.9% inter:32.3%
x264 [info]: direct mvs spatial:99.9% temporal:0.1%
x264 [info]: coded y,uvDC,uvAC intra: 88.6% 94.6% 91.2% inter: 36.8% 49.5% 32.1%
x264 [info]: i16 v,h,dc,p: 19% 9% 17% 55%
x264 [info]: i8 v,h,dc,ddl,ddr,vr,hd,vl,hu: 14% 13% 23% 7% 7% 8% 7% 9% 11%
x264 [info]: i4 v,h,dc,ddl,ddr,vr,hd,vl,hu: 16% 12% 19% 7% 10% 10% 9% 8% 9%
x264 [info]: i8c dc,h,v,p: 54% 19% 16% 11%
x264 [info]: Weighted P-Frames: Y:4.2% UV:2.9%
x264 [info]: ref P L0: 53.9% 9.7% 20.9% 7.4% 7.7% 0.3% 0.0%
x264 [info]: ref B L0: 71.6% 19.5% 7.2% 1.7%
x264 [info]: ref B L1: 93.3% 6.7%
x264 [info]: kb/s:13168.63
x264 [total]: encoded 135840 frames, 6.62 fps, 13168.63 kb/s
Format : Matroska
Format version : Version 4
File size : 9.94 GiB
Duration : 1 h 34 min
Overall bit rate : 15.1 Mb/s
Movie name : Missing Link (2019).1080p
Encoded date : UTC 2020-02-10 23:02:08
Writing application : mkvmerge v8.2.0 ('World of Adventure') 64bit
Writing library : libebml v1.3.1 + libmatroska v1.4.2
Video
ID : 1
Format : AVC
Format/Info : Advanced Video Codec
Format profile : High@L4.1
Format settings : CABAC / 5 Ref Frames
Format settings, CABAC : Yes
Format settings, Reference frames : 5 frames
Codec ID : V_MPEG4/ISO/AVC
Duration : 1 h 34 min
Bit rate : 13.2 Mb/s
Width : 1 920 pixels
Height : 800 pixels
Display aspect ratio : 2.40:1
Frame rate mode : Constant
Frame rate : 23.976 (24000/1001) FPS
Color space : YUV
Chroma subsampling : 4:2:0
Bit depth : 8 bits
Scan type : Progressive
Bits/(Pixel*Frame) : 0.358
Stream size : 8.69 GiB (87%)
Title : Missing Link (2019).1080p
Writing library : x264 core 159 r2991 1771b55
Encoding settings : cabac=1 / ref=5 / deblock=1:-3:-3 / analyse=0x3:0x133 / me=umh / subme=11 / psy=1 / psy_rd=1.00:0.05 / mixed_ref=1 / me_range=48 / chroma_me=1 / trellis=2 / 8x8dct=1 / cqm=0 / deadzone=21,11 / fast_pskip=0 / chroma_qp_offset=-3 / threads=12 / lookahead_threads=3 / sliced_threads=0 / nr=0 / decimate=1 / interlaced=0 / bluray_compat=0 / constrained_intra=0 / bframes=10 / b_pyramid=2 / b_adapt=2 / b_bias=0 / direct=3 / weightb=1 / open_gop=0 / weightp=2 / keyint=250 / keyint_min=23 / scenecut=40 / intra_refresh=0 / rc_lookahead=60 / rc=crf / mbtree=0 / crf=15.4 / qcomp=0.60 / qpmin=0 / qpmax=69 / qpstep=4 / vbv_maxrate=50000 / vbv_bufsize=62500 / crf_max=0.0 / nal_hrd=none / filler=0 / ip_ratio=1.40 / pb_ratio=1.30 / aq=3:0.90
Language : English
Default : Yes
Forced : No
Audio #1
ID : 2
Format : AC-3
Format/Info : Audio Coding 3
Commercial name : Dolby Digital
Codec ID : A_AC3
Duration : 1 h 34 min
Bit rate mode : Constant
Bit rate : 384 kb/s
Channel(s) : 6 channels
Channel layout : L R C LFE Ls Rs
Sampling rate : 48.0 kHz
Frame rate : 31.250 FPS (1536 SPF)
Bit depth : 16 bits
Compression mode : Lossy
Stream size : 259 MiB (3%)
Title : DUB (iTunes)
Language : Russian
Service kind : Complete Main
Default : Yes
Forced : No
Audio #2
ID : 3
Format : DTS
Format/Info : Digital Theater Systems
Codec ID : A_DTS
Duration : 1 h 34 min
Bit rate mode : Constant
Bit rate : 1 509 kb/s
Channel(s) : 6 channels
Channel layout : C L R Ls Rs LFE
Sampling rate : 48.0 kHz
Frame rate : 93.750 FPS (512 SPF)
Bit depth : 24 bits
Compression mode : Lossy
Stream size : 1 019 MiB (10%)
Title : Original
Language : English
Default : No
Forced : No
Text #1
ID : 4
Format : UTF-8
Codec ID : S_TEXT/UTF8
Codec ID/Info : UTF-8 Plain Text
Duration : 8 s 50 ms
Bit rate : 248 b/s
Count of elements : 5
Stream size : 250 Bytes (0%)
Title : Forced
Language : Russian
Default : Yes
Forced : No
Text #2
ID : 5
Format : UTF-8
Codec ID : S_TEXT/UTF8
Codec ID/Info : UTF-8 Plain Text
Duration : 8 s 49 ms
Bit rate : 140 b/s
Count of elements : 5
Stream size : 141 Bytes (0%)
Title : Forced
Language : English
Default : No
Forced : No
Text #3
ID : 6
Format : UTF-8
Codec ID : S_TEXT/UTF8
Codec ID/Info : UTF-8 Plain Text
Duration : 1 h 34 min
Bit rate : 65 b/s
Count of elements : 1615
Stream size : 45.2 KiB (0%)
Title : SDH
Language : English
Default : No
Forced : No
Menu
00:00:00.000 : en:Chapter 01
00:05:12.520 : en:Chapter 02
00:08:53.616 : en:Chapter 03
00:12:29.206 : en:Chapter 04
00:15:35.851 : en:Chapter 05
00:20:18.550 : en:Chapter 06
00:24:26.840 : en:Chapter 07
00:29:55.126 : en:Chapter 08
00:33:14.659 : en:Chapter 09
00:36:40.948 : en:Chapter 10
00:40:33.389 : en:Chapter 11
00:43:45.164 : en:Chapter 12
00:47:24.299 : en:Chapter 13
00:52:50.876 : en:Chapter 14
00:55:14.477 : en:Chapter 15
00:58:51.903 : en:Chapter 16
00:59:59.721 : en:Chapter 17
01:02:54.729 : en:Chapter 18
01:05:15.494 : en:Chapter 19
01:08:17.176 : en:Chapter 20
01:11:00.339 : en:Chapter 21
01:13:20.437 : en:Chapter 22
01:21:51.197 : en:Chapter 23
01:24:48.625 : en:Chapter 24[/pre]

Скриншоты