Совершенство / The Perfection
Страна: США
Жанр: триллер, драма
Год выпуска: 2018
Продолжительность: 1:30:00
Перевод 1: Авторский (одноголосый закадровый) Юрий Немахов
Перевод 2: Профессиональный (многоголосый закадровый) HDRezka Studio
Субтитры: русские, английские
Оригинальная аудиодорожка: английский
Режиссер: Ричард Шепард / Richard Shepard
В ролях: Эллисон Уильямс, Логан Браунинг, Стивен Уэбер, Элейна Хаффман, Глайнис Дейвис, Доралинн Мю, Кристина Ястржембска, Молли Грэйс, Грэм Даффи, Винни Хун
Описание: Подававшая в прошлом огромные надежды виолончелистка Шарлотта 10 лет назад была вынуждена отказаться от призвания всей жизни и уехать домой, чтобы ухаживать за больной матерью. Теперь, когда её мать умерла, девушка первым делом находит своих бывших учителей Антона и Палому, которые в Китае выбирают себе следующую ученицу, а также знакомится с их новой протеже и суперзвездой Лиззи. Девушки так непохожи друг на друга, но между ними сразу же возникает непреодолимое притяжение, и вот уже новые подруги вместе отправляются в путешествие по Китаю.
Доп. информация:
• Дорожка №1 получена наложением чистого голоса на центр декодированного E-AC3 5.1, работа со звуком - rammzez.
• Перевод Ю.Немахова осуществлен в рамках сервиса "Краудфандинг" совместно с ресурсами e180 и TeamHD.
Спонсоры:
Rutracker - amplified, Render71, cedr
E180 - oleg-k, Evromaster, chontvari, пуля, hdrmv12, -Holo-, barvinok13, magvai, miracle, Vadamk
TeamHD - tambov68, zlodei24, digitus, uncasual, alexeycezar
Сэмпл: https://yadi.sk/d/jgXWobIuBI3vxw
Тип релиза: WEB-DL 1080p
Контейнер: MKV
Видео: MPEG-4 AVC, 1920x1080, 23,976 fps, ~3650 kbps avg
Аудио 1: Russian / AC3 / 5.1 / 48 kHz / 640 kbps / [Юрий Немахов]
Аудио 2: Russian / AC3 / 2.0 / 48 kHz / 192 kbps / [HDRezka Studio]
Аудио 3: English / E-AC3 / 5.1 / 48 kHz / 640 kbps
Формат субтитров: softsub (SRT)

MediaInfo

Общее
Уникальный идентификатор : 139148235857427499562317211641200929634 (0x68AEF9B4C63C0C968DF14725F6CE6B62)
Полное имя : F:\The.Perfection.2018.WEB-DL.1080p.mkv
Формат : Matroska
Версия формата : Version 4
Размер файла : 3,23 Гбайт
Продолжительность : 1 ч. 30 м.
Режим общего битрейта : Переменный
Общий поток : 5098 Кбит/сек
Дата кодирования : UTC 2019-11-24 11:09:59
Программа кодирования : mkvmerge v40.0.0 ('Old Town Road + Pony') 64-bit
Библиотека кодирования : libebml v1.3.9 + libmatroska v1.5.2
Видео
Идентификатор : 1
Формат : AVC
Формат/Информация : Advanced Video Codec
Профиль формата : Main@L4
Настройки формата : CABAC / 3 Ref Frames
Параметр CABAC формата : Да
Параметр RefFrames формата : 3 кадра
Идентификатор кодека : V_MPEG4/ISO/AVC
Продолжительность : 1 ч. 30 м.
Вид битрейта : Переменный
Битрейт : 3650 Кбит/сек
Максимальный битрейт : 5475 Кбит/сек
Ширина : 1920 пикселей
Высота : 1080 пикселей
Соотношение сторон : 16:9
Режим частоты кадров : Постоянный
Частота кадров : 23,976 (24000/1001) кадра/сек
Цветовое пространство : YUV
Субдискретизация насыщенности : 4:2:0
Битовая глубина : 8 бит
Тип развёртки : Прогрессивная
Бит/(Пиксели*Кадры) : 0.073
Размер потока : 2,29 Гбайт (71%)
Библиотека кодирования : x264 core 148 r2715 7e75228
Настройки программы : cabac=1 / ref=3 / deblock=1:0:0 / analyse=0x1:0x111 / me=umh / subme=10 / psy=1 / psy_rd=1.00:0.00 / mixed_ref=1 / me_range=24 / chroma_me=1 / trellis=2 / 8x8dct=0 / cqm=0 / deadzone=21,11 / fast_pskip=1 / chroma_qp_offset=-2 / threads=8 / lookahead_threads=1 / sliced_threads=0 / nr=0 / decimate=1 / interlaced=0 / bluray_compat=0 / stitchable=1 / constrained_intra=0 / bframes=2 / b_pyramid=0 / b_adapt=2 / b_bias=0 / direct=3 / weightb=1 / open_gop=0 / weightp=2 / keyint=48 / keyint_min=25 / scenecut=0 / intra_refresh=0 / rc_lookahead=48 / rc=2pass / mbtree=1 / bitrate=3650 / ratetol=1.0 / qcomp=0.50 / qpmin=6 / qpmax=51 / qpstep=4 / cplxblur=20.0 / qblur=0.5 / vbv_maxrate=5475 / vbv_bufsize=7300 / nal_hrd=vbr / filler=0 / ip_ratio=1.40 / aq=1:1.00
Язык : English
Default : Да
Forced : Нет
Аудио #1
Идентификатор : 2
Формат : AC-3
Формат/Информация : Audio Coding 3
Коммерческое название : Dolby Digital
Идентификатор кодека : A_AC3
Продолжительность : 1 ч. 30 м.
Вид битрейта : Постоянный
Битрейт : 640 Кбит/сек
Каналы : 6 каналов
ChannelLayout : L R C LFE Ls Rs
Частота : 48,0 КГц
Частота кадров : 31,250 кадров/сек (1536 SPF)
Метод сжатия : С потерями
Размер потока : 415 Мбайт (13%)
Заголовок : Nemahov
Язык : Russian
ServiceKind/String : Complete Main
Default : Да
Forced : Да
Аудио #2
Идентификатор : 3
Формат : AC-3
Формат/Информация : Audio Coding 3
Коммерческое название : Dolby Digital
Идентификатор кодека : A_AC3
Продолжительность : 1 ч. 30 м.
Вид битрейта : Постоянный
Битрейт : 192 Кбит/сек
Каналы : 2 канала
ChannelLayout : L R
Частота : 48,0 КГц
Частота кадров : 31,250 кадров/сек (1536 SPF)
Метод сжатия : С потерями
Размер потока : 124 Мбайт (4%)
Заголовок : MVO HDRezka Studio
Язык : Russian
ServiceKind/String : Complete Main
Default : Нет
Forced : Нет
Аудио #3
Идентификатор : 4
Формат : E-AC-3
Формат/Информация : Enhanced AC-3
Коммерческое название : Dolby Digital Plus
Идентификатор кодека : A_EAC3
Продолжительность : 1 ч. 30 м.
Вид битрейта : Постоянный
Битрейт : 640 Кбит/сек
Каналы : 6 каналов
ChannelLayout : L R C LFE Ls Rs
Частота : 48,0 КГц
Частота кадров : 31,250 кадров/сек (1536 SPF)
Метод сжатия : С потерями
Размер потока : 415 Мбайт (13%)
Язык : English
ServiceKind/String : Complete Main
Default : Нет
Forced : Нет
Текст #1
Идентификатор : 5
Формат : UTF-8
Идентификатор кодека : S_TEXT/UTF8
Идентификатор кодека/Информация : UTF-8 Plain Text
Продолжительность : 1 ч. 18 м.
Битрейт : 1 бит/сек
ElementCount : 17
Размер потока : 629 байт (0%)
Заголовок : Russian forced
Язык : Russian
Default : Да
Forced : Да
Текст #2
Идентификатор : 6
Формат : UTF-8
Идентификатор кодека : S_TEXT/UTF8
Идентификатор кодека/Информация : UTF-8 Plain Text
Продолжительность : 1 ч. 29 м.
Битрейт : 65 бит/сек
ElementCount : 1040
Размер потока : 42,5 Кбайт (0%)
Заголовок : Russian
Язык : Russian
Default : Нет
Forced : Нет
Текст #3
Идентификатор : 7
Формат : UTF-8
Идентификатор кодека : S_TEXT/UTF8
Идентификатор кодека/Информация : UTF-8 Plain Text
Продолжительность : 1 ч. 23 м.
Битрейт : 54 бит/сек
ElementCount : 1206
Размер потока : 33,3 Кбайт (0%)
Заголовок : English [SDH]
Язык : English
Default : Нет
Forced : Нет

Скриншоты