Важное объявление!
У Нас Все раздачи мультитрекерные, при нуле пиров в релизах, можете смело вставать на закачку!
 
Автор Сообщение

HUNTER

Стаж:
4 года 4 месяца
Сообщений:
56798

Репутация: 101

[+] [-]
Вне форума [Профиль] [ЛС]

Ясновидение
Chit sam phat 3D
The Second Sight

Год выпуска: 2013
Страна: Таиланд (Five Star Production)
Жанр: Ужасы
Продолжительность: 1:29:34
Озвучка: Любительская двухголосая закадровая - DeadSno & den904 (релиз-группа "Колобок") (перевод - DeadSno)
Режиссер: Порнчай Хонграттанап / Pornchai Hongrattana
В ролях: Nawat Kulrattanarak (Jet), Ейяинг Рхатха Пхонгам (Joom), Virapond Jirawetsuntorakul (Kaew), Anon Saisangcharn (Inspector), Klaokaew Sinteppadon (Gift), Пракасит Бовсуван (Niwat)-Описание: Джет с рождения обладал уникальными способностями к ясновидению, и хотя порою это изрядно облегчало ему жизнь, он всегда был настоящим изгоем, поскольку люди считали его мутантом. Когда однажды парень влюбляется в очаровательную Джум, это совершенно меняет его жизнь. Теперь, используя свои паранормальные способности, Джет пытается помочь девушке, оказавшейся в сложной ситуации, однако вскоре это приводит к печальным последствиям…-Доп. инфо: В отличие от уже имеющейся в рунете этой озвучки в 5.1ch, в данном релизе идеальный синхрон между центральным каналом и каналами окружения. Также, здесь качество звука несравнимо лучше.-Премьера (мир): 22 августа 2013
. .
-Качество: BDRip (by Ash61)
Контейнер: MKV
Формат 3D: Half OverUnder / Вертикальная анаморфная стереопара
Порядок ракурсов: левый ракурс первый
Видео кодек: x264
Аудио кодек: AC3-Видео: AVC / 23,976 fps / 1920х1080p / 11.2 Mbps
Аудио:
#1 - Русский / AC3 / 48 KHz / 5.1 ch / 640 Kbps (DVO - DeadSno & den904) (микс в 5.1 - Ash61)
#2 - Тайский / AC3 / 48 KHz / 5.1 ch / 640 Kbps (Original - BD 3D)
Субтитры: Внешние (SRT UTF-8) English Full
MediaInfo
General
Unique ID : 222152494442715729069429089483791234016 (0xA721039DCF9CAC55AB6E623080CF73E0)
Complete name : E:\TheSecondSight(2013)3D-halfOU(Ash61)DVO\TheSecondSight(2013)3D-halfOU(Ash61)DVO.mkv
Format : Matroska
Format version : Version 2
File size : 7.97 GiB
Duration : 1h 29mn
Overall bit rate : 12.7 Mbps
Movie name : Ясновидение / Chit sam phat 3D / The Second Sight (2013) 3D
Encoded date : UTC 2014-04-29 19:25:41
Writing application : mkvmerge v5.8.0 ('No Sleep / Pillow') built on Sep 2 2012 15:37:04
Writing library : libebml v1.2.3 + libmatroska v1.3.0
Video
ID : 1
Format : AVC
Format/Info : Advanced Video Codec
Format profile : High@L4.1
Format settings, CABAC : Yes
Format settings, ReFrames : 4 frames
Codec ID : V_MPEG4/ISO/AVC
Duration : 1h 29mn
Bit rate : 11.2 Mbps
Width : 1 920 pixels
Height : 1 080 pixels
Display aspect ratio : 16:9
Frame rate mode : Constant
Frame rate : 23.976 fps
Color space : YUV
Chroma subsampling : 4:2:0
Bit depth : 8 bits
Scan type : Progressive
Bits/(Pixel*Frame) : 0.225
Stream size : 7.01 GiB (88%)
Title : BDRip by Ash61
Writing library : x264 core 129 r2245 bc13772
Encoding settings : cabac=1 / ref=4 / deblock=1:-3:-3 / analyse=0x3:0x113 / me=umh / subme=10 / psy=1 / psy_rd=1.00:0.15 / mixed_ref=1 / me_range=32 / chroma_me=1 / trellis=2 / 8x8dct=1 / cqm=0 / deadzone=21,11 / fast_pskip=1 / chroma_qp_offset=-3 / threads=12 / lookahead_threads=2 / sliced_threads=0 / nr=0 / decimate=1 / interlaced=0 / bluray_compat=0 / constrained_intra=0 / bframes=10 / b_pyramid=2 / b_adapt=2 / b_bias=0 / direct=3 / weightb=1 / open_gop=0 / weightp=2 / keyint=250 / keyint_min=23 / scenecut=40 / intra_refresh=0 / rc_lookahead=60 / rc=crf / mbtree=1 / crf=17.5 / qcomp=0.70 / qpmin=0 / qpmax=69 / qpstep=4 / vbv_maxrate=40000 / vbv_bufsize=30000 / crf_max=0.0 / nal_hrd=none / frame-packing=4 / ip_ratio=1.40 / aq=1:0.70
Language : Thai
Default : Yes
Forced : No
Audio #1
ID : 2
Format : AC-3
Format/Info : Audio Coding 3
Mode extension : CM (complete main)
Format settings, Endianness : Big
Codec ID : A_AC3
Duration : 1h 29mn
Bit rate mode : Constant
Bit rate : 640 Kbps
Channel(s) : 6 channels
Channel positions : Front: L C R, Side: L R, LFE
Sampling rate : 48.0 KHz
Bit depth : 16 bits
Compression mode : Lossy
Stream size : 410 MiB (5%)
Title : Двухголосый закадровый - DeadSno & den904 (микс в 5.1 - Ash61)
Language : Russian
Default : Yes
Forced : No
Audio #2
ID : 3
Format : AC-3
Format/Info : Audio Coding 3
Mode extension : CM (complete main)
Format settings, Endianness : Big
Codec ID : A_AC3
Duration : 1h 29mn
Bit rate mode : Constant
Bit rate : 640 Kbps
Channel(s) : 6 channels
Channel positions : Front: L C R, Side: L R, LFE
Sampling rate : 48.0 KHz
Bit depth : 16 bits
Compression mode : Lossy
Stream size : 410 MiB (5%)
Title : Original - BD 3D
Language : Thai
Default : No
Forced : No
Menu
00:00:00.000 : :1
00:08:38.393 : :2
00:14:28.451 : :3
00:20:59.633 : :4
00:29:30.644 : :5
00:38:30.600 : :6
00:45:02.199 : :7
00:52:12.755 : :8
00:59:06.835 : :9
01:08:41.326 : :10
01:16:45.017 : :11
01:24:55.173 : :12
СкриншотыДля оценки 3Д - Анимированные скрины

_________________
Показать сообщения:    

Текущее время: Сегодня 23:12

Часовой пояс: GMT



Вы не можете начинать темы
Вы не можете отвечать на сообщения
Вы не можете редактировать свои сообщения
Вы не можете удалять свои сообщения
Вы не можете голосовать в опросах
Вы не можете прикреплять файлы к сообщениям
Вы не можете скачивать файлы