Важное объявление!
У Нас Все раздачи мультитрекерные, при нуле пиров в релизах, можете смело вставать на закачку!
 
Автор Сообщение

HUNTER

Стаж:
4 года 4 месяца
Сообщений:
56829

Репутация: 101

[+] [-]
Вне форума [Профиль] [ЛС]

Язык нежности / Terms of Endearment
Страна: США
Жанр: драма, мелодрама, комедия
Год выпуска: 1983
Продолжительность: 02:11:55
Перевод: Профессиональный (многоголосый закадровый)
Перевод: Авторский (одноголосый закадровый) А. Михалев
Cубтитры: английские
Оригинальная аудиодорожка: английский-Режиссер: Джеймс Л. Брукс / James L. Brooks
В ролях: Ширли МакЛэйн, Дебра Уингер, Дэнни Де Вито, Джек Николсон, Джефф Дэниэлс, Джон Литгоу, Бетти Кинг, Трой Бишоп, Норман Беннетт, Пол Мензел, Ф. Уильям Паркер, Дэвид Вол, Шарисс Бэйкер-Бернар, Джудит А. Дикерсон, Нэнси Метте, Лиза Харт Кэрролл, Хаклберри Фокс, Кейт Чарлсон, Девон О'Брайэн, Дэна Вэнс
Описание: По мотивам одноимённого романа Лэрри МакМертри.
История о непростых отношениях Гаррета Бридлава - отставного астронавта, всю жизнь проходившего запасным номером, вышедшего на заслуженный отдых и предающего всевозможным радостям жизни, шокируя провинцмальный городок, и его соседки - Авроры Гринуэй, стареющей вдовы, которой стало очень одиноко после того, как пресытившаяся ее опекой дочь вышла замуж и переехала в другой город. "Слова нежности", сказанные друг другу героями, как оказалось, на деле самые трудные для произношения и восприятия.
IMDb || КиноПоиск-Тип релиза: BDRip 720p [DON]
Контейнер: MKV
Видео: H.264/AVC, 1280x720 at 23.976 fps, ~12534 kbps
Аудио#1: Russian: 48 kHz, AC3, 2/0 (L,R) ch, 192 kbps |Многоголосый закадровый|
Аудио#2: Russian: 48 kHz, AC3, 2/0 (L,R) ch, 192 kbps |Авторский одноголосый закадровый, А.Михалев|
Аудио#3: English: 48 kHz, AC3, 3/2 (L,C,R,l,r) + LFE ch, 640 kbps
Формат субтитров: softsub (SRT)
Сэмпл

MediaInfo

x264

x264 [info]: frame I:1219 Avg QP:16.75 size:173331
x264 [info]: frame P:34443 Avg QP:17.89 size:104598
x264 [info]: frame B:154117 Avg QP:20.04 size: 55724
x264 [info]: consecutive B-frames: 0.8% 0.4% 2.0% 11.3% 16.8% 54.1% 7.1% 3.8% 3.7%
Format : Matroska
Format version : Version 2
File size : 12.5 GiB
Duration : 2h 11mn
Overall bit rate : 13.6 Mbps
Encoded date : UTC 2013-05-18 23:41:26
Writing application : mkvmerge v5.0.1 ('Es ist Sommer') built on Nov 6 2011 16:23:40
Writing library : libebml v1.2.2 + libmatroska v1.3.0
Video
ID : 1
Format : AVC
Format/Info : Advanced Video Codec
Format profile : High@L4.1
Format settings, CABAC : Yes
Format settings, ReFrames : 9 frames
Codec ID : V_MPEG4/ISO/AVC
Duration : 2h 11mn
Bit rate : 12.3 Mbps
Width : 1 280 pixels
Height : 720 pixels
Display aspect ratio : 16:9
Frame rate : 23.976 fps
Color space : YUV
Chroma subsampling : 4:2:0
Bit depth : 8 bits
Scan type : Progressive
Bits/(Pixel*Frame) : 0.555
Stream size : 11.3 GiB (90%)
Title : DON
Writing library : x264 core 120 r2164+656 2ff844c
Encoding settings : cabac=1 / ref=9 / deblock=1:-3:-3 / analyse=0x3:0x133 / me=umh / subme=10 / psy=1 / fade_compensate=0.00 / psy_rd=1.00:0.05 / mixed_ref=1 / me_range=32 / chroma_me=1 / trellis=2 / 8x8dct=1 / cqm=0 / deadzone=21,11 / fast_pskip=0 / chroma_qp_offset=-3 / threads=3 / sliced_threads=0 / nr=0 / decimate=0 / interlaced=0 / bluray_compat=0 / constrained_intra=0 / fgo=0 / bframes=8 / b_pyramid=2 / b_adapt=2 / b_bias=0 / direct=3 / weightb=1 / open_gop=0 / weightp=2 / keyint=250 / keyint_min=23 / scenecut=40 / intra_refresh=0 / rc=crf / mbtree=0 / crf=16.6 / qcomp=0.60 / qpmin=0 / qpmax=69 / qpstep=4 / ip_ratio=1.40 / pb_ratio=1.30 / aq=3:0.80
Language : English
Default : Yes
Forced : No
Audio #1
ID : 2
Format : AC-3
Format/Info : Audio Coding 3
Mode extension : CM (complete main)
Codec ID : A_AC3
Duration : 2h 11mn
Bit rate mode : Constant
Bit rate : 192 Kbps
Channel(s) : 2 channels
Channel positions : Front: L R
Sampling rate : 48.0 KHz
Bit depth : 16 bits
Compression mode : Lossy
Stream size : 181 MiB (1%)
Title : mvo
Language : Russian
Default : Yes
Forced : No
Audio #2
ID : 3
Format : AC-3
Format/Info : Audio Coding 3
Mode extension : CM (complete main)
Codec ID : A_AC3
Duration : 2h 11mn
Bit rate mode : Constant
Bit rate : 192 Kbps
Channel(s) : 2 channels
Channel positions : Front: L R
Sampling rate : 48.0 KHz
Bit depth : 16 bits
Compression mode : Lossy
Stream size : 181 MiB (1%)
Title : avo
Default : No
Forced : No
Audio #3
ID : 4
Format : AC-3
Format/Info : Audio Coding 3
Mode extension : CM (complete main)
Codec ID : A_AC3
Duration : 2h 11mn
Bit rate mode : Constant
Bit rate : 640 Kbps
Channel(s) : 6 channels
Channel positions : Front: L C R, Side: L R, LFE
Sampling rate : 48.0 KHz
Bit depth : 16 bits
Compression mode : Lossy
Stream size : 604 MiB (5%)
Language : English
Default : No
Forced : No
Text
ID : 5
Format : UTF-8
Codec ID : S_TEXT/UTF8
Codec ID/Info : UTF-8 Plain Text
Language : English
Default : No
Forced : No
Menu
00:00:00.000 : :00:00:00.000
00:05:34.793 : :00:05:34.793
00:22:29.265 : :00:22:29.265
00:28:01.597 : :00:28:01.597
00:35:44.851 : :00:35:44.851
00:48:28.030 : :00:48:28.030
00:59:05.417 : :00:59:05.417
01:11:14.937 : :01:11:14.937
01:28:18.376 : :01:28:18.376
01:31:47.669 : :01:31:47.669
01:38:52.969 : :01:38:52.969
01:43:22.530 : :01:43:22.530
01:45:21.565 : :01:45:21.565
01:49:55.214 : :01:49:55.214
02:03:33.323 : :02:03:33.323
02:08:48.471 : :02:08:48.471

Скриншоты

DON vs Source vs WEB-DL

_________________
Показать сообщения:    

Текущее время: Сегодня 10:52

Часовой пояс: GMT



Вы не можете начинать темы
Вы не можете отвечать на сообщения
Вы не можете редактировать свои сообщения
Вы не можете удалять свои сообщения
Вы не можете голосовать в опросах
Вы не можете прикреплять файлы к сообщениям
Вы не можете скачивать файлы