Важное объявление!
У Нас Все раздачи мультитрекерные, при нуле пиров в релизах, можете смело вставать на закачку!
 
Автор Сообщение

HUNTER

Стаж:
4 года 4 месяца
Сообщений:
56798

Репутация: 101

[+] [-]
Вне форума [Профиль] [ЛС]

Яды или Всемирная история отравлений-Страна: Россия
Жанр:Комедия
Год выпуска: 2001
Продолжительность: 1:43:47-Режиссер:
Карен Шахназаров
В ролях:
Олег Басилашвили (Прохоров), Игнат Акрачков (Волков), Александр Баширов (слесарь Шарапов), Жанна Дуданова (жена), Людмила Касаткина (теща), Екатерина Климова (Жанна де Альбре), Андрей Панин (Чезаре Борджия), Ольга Тумайкина (Зоя), Дмитрий Дюжев, Марина Казанкова (Лукреция Борджиа), Павел Поймалов (актер в театре), Ирина Леонова-Описание:
Москва, 2000 год. Слесарь Арнольд уводит по-соседски жену у актера Олега Волкова. Олег решает напиться в ближайшем баре, где встречает обычного пенсионера Прохорова.
Старик предлагает пострадавшему простой способ мести - отравить обидчиков. И сразу все закрутилось. Время пошло вспять к великим отравлениям всех эпох и народов, от Нерона до Екатерины Медичи, в средневековом Риме и древней Персии…- в общем, началась всемирная история отравления.
- .............................. .............................. -Гран-при на ОРКФ «Кинотавр», 2001г.
Приз КФ в Онфлере, 2001г.
-Дополнительные материалы: «Сложный состав «Ядов...»» Рассказ Карена Шахназарова.
Качество: Blu-Ray 1080p
Формат: BDMV
Video: MPEG-4 AVC Video / 24912 kbps / 1080p / 23,976 fps / 16:9 / High Profile 4.1
Audio: Russian / DTS-HD Master Audio / 5.1 / 48 kHz / 3871 kbps / 24-bit (DTS Core: 5.1 / 48 kHz / 1509 kbps / 24-bit)
Audio: Russian / Dolby Digital Audio / 5.1 / 48 kHz / 448 kbps
Audio: Russian / LPCM Audio / 2.0 / 48 kHz / 2304 kbps / 24-bitРелиз от:

Скриншоты


BDinfo

Disc Title: YAD_VIV_BLUEBIRD
Disc Size: 29 643 668 054 bytes
Protection: AACS
BD-Java: No
BDInfo: 0.5.2
Notes:
BDINFO HOME AND REPORTS SUBMISSION:
Cinema Squid
http://www.cinemasquid.com/Tools.aspx
INCLUDES FORUMS REPORT FOR:
Unofficial Blu-ray Audio and Video Specifications Thread
http://www.avsforum.com/avs-vb/showthread.php?t=760714
http://forum.blu-ray.com/showthread.php?t=3338
********************
PLAYLIST: 00003.MPLS
********************
<--- BEGIN FORUMS PASTE --->
Код:
Total   Video
Title                                                           Codec   Length  Movie Size      Disc Size       Bitrate Bitrate Main Audio Track                          Secondary Audio Track
-----                                                           ------  ------- --------------  --------------  ------- ------- ------------------                        ---------------------
00003.MPLS                                                      AVC     1:43:47 25 911 226 368  29 643 668 054  33,28   24,91   DTS-HD Master 5.1 3871Kbps (48kHz/24-bit) DD AC3 5.1 448Kbps
Код:
DISC INFO:
Disc Title:     YAD_VIV_BLUEBIRD
Disc Size:      29 643 668 054 bytes
Protection:     AACS
BD-Java:        No
BDInfo:         0.5.2
PLAYLIST REPORT:
Name:                   00003.MPLS
Size:                   25 911 226 368 bytes
Length:                 1:43:47 (h:m:s)
Total Bitrate:          33,28 Mbps
Description:
VIDEO:
Codec                   Bitrate             Description
-----                   -------             -----------
MPEG-4 AVC Video        24912 kbps          1080p / 23,976 fps / 16:9 / High Profile 4.1
AUDIO:
Codec                           Language        Bitrate         Description
-----                           --------        -------         -----------
DTS-HD Master Audio             English         3871 kbps       5.1 / 48 kHz / 3871 kbps / 24-bit (DTS Core: 5.1 / 48 kHz / 1509 kbps / 24-bit)
Dolby Digital Audio             English         448 kbps        5.1 / 48 kHz / 448 kbps
LPCM Audio                      English         2304 kbps       2.0 / 48 kHz / 2304 kbps / 24-bit
FILES:
Name            Time In         Length          Size            Total Bitrate
----            -------         ------          ----            -------------
00007.M2TS      0:00:00.000     1:43:47.763     25 911 226 368  33 285
CHAPTERS:
Number          Time In         Length          Avg Video Rate  Max 1-Sec Rate  Max 1-Sec Time  Max 5-Sec Rate  Max 5-Sec Time  Max 10Sec Rate  Max 10Sec Time  Avg Frame Size  Max Frame Size  Max Frame Time
------          -------         ------          --------------  --------------  --------------  --------------  --------------  --------------  --------------  --------------  --------------  --------------
1               0:00:00.000     0:09:10.383     21 725 kbps     39 045 kbps     00:05:39.672    31 086 kbps     00:05:35.835    28 944 kbps     00:05:59.984    113 257 bytes   348 984 bytes   00:02:07.126
2               0:09:10.383     0:04:05.411     26 605 kbps     35 254 kbps     00:10:43.726    31 027 kbps     00:09:18.558    30 655 kbps     00:09:32.488    138 705 bytes   423 575 bytes   00:09:42.456
3               0:13:15.795     0:07:31.451     24 367 kbps     44 569 kbps     00:16:05.589    33 991 kbps     00:16:03.128    31 290 kbps     00:15:58.123    127 040 bytes   405 220 bytes   00:17:06.191
4               0:20:47.246     0:03:01.180     25 127 kbps     34 102 kbps     00:22:03.071    32 397 kbps     00:21:51.727    31 923 kbps     00:21:48.890    130 999 bytes   409 048 bytes   00:21:46.930
5               0:23:48.427     0:07:49.469     25 834 kbps     30 974 kbps     00:27:07.667    28 157 kbps     00:24:46.943    27 390 kbps     00:26:17.200    134 688 bytes   386 832 bytes   00:26:59.576
6               0:31:37.896     0:08:23.502     25 724 kbps     30 592 kbps     00:32:46.172    28 308 kbps     00:33:19.622    27 442 kbps     00:39:30.910    134 112 bytes   299 083 bytes   00:31:37.979
7               0:40:01.399     0:08:28.508     26 001 kbps     31 080 kbps     00:47:34.434    27 974 kbps     00:44:01.805    27 655 kbps     00:43:41.535    135 556 bytes   292 597 bytes   00:47:35.143
8               0:48:29.907     0:08:19.916     25 780 kbps     37 962 kbps     00:55:27.907    32 357 kbps     00:55:26.906    29 621 kbps     00:54:09.287    134 406 bytes   376 582 bytes   00:55:30.452
9               0:56:49.823     0:08:08.070     26 109 kbps     36 538 kbps     00:58:20.955    31 003 kbps     00:58:05.482    30 632 kbps     00:58:03.730    136 121 bytes   371 479 bytes   00:58:08.693
10              1:04:57.894     0:10:11.610     25 464 kbps     37 878 kbps     01:06:32.196    33 010 kbps     01:06:31.612    31 611 kbps     01:06:31.487    132 759 bytes   471 992 bytes   01:06:48.462
11              1:15:09.505     0:07:54.474     26 021 kbps     30 707 kbps     01:17:50.749    29 365 kbps     01:18:39.464    28 545 kbps     01:18:36.336    135 660 bytes   314 037 bytes   01:16:05.018
12              1:23:03.979     0:06:23.382     25 988 kbps     30 534 kbps     01:23:18.493    28 558 kbps     01:24:37.989    27 901 kbps     01:24:33.651    135 488 bytes   302 315 bytes   01:23:12.529
13              1:29:27.362     0:07:28.448     26 003 kbps     33 549 kbps     01:34:01.177    30 595 kbps     01:33:58.174    29 568 kbps     01:33:53.294    135 569 bytes   366 038 bytes   01:34:01.510
14              1:36:55.810     0:06:51.953     18 526 kbps     32 910 kbps     01:39:15.407    30 000 kbps     01:37:23.003    28 338 kbps     01:37:23.796    96 594 bytes    387 701 bytes   01:37:25.047
STREAM DIAGNOSTICS:
File            PID             Type            Codec           Language                Seconds                 Bitrate                 Bytes           Packets
----            ---             ----            -----           --------                --------------          --------------          -------------   -----
00007.M2TS      4113 (0x1011)   0x1B            AVC                                     6227,638                24 913                  19 393 602 802  105 487 290
00007.M2TS      4352 (0x1100)   0x86            DTS-HD MA       eng (English)           6227,638                3 871                   3 013 553 876   17 347 814
00007.M2TS      4353 (0x1101)   0x81            AC3             eng (English)           6227,638                448                     348 753 664     1 946 170
00007.M2TS      4354 (0x1102)   0x80            LPCM            eng (English)           6227,638                2 310                   1 798 566 980   9 964 360
<---- END FORUMS PASTE ---->
QUICK SUMMARY:
Disc Title: YAD_VIV_BLUEBIRD
Disc Size: 29 643 668 054 bytes
Protection: AACS
BD-Java: No
Playlist: 00003.MPLS
Size: 25 911 226 368 bytes
Length: 1:43:47
Total Bitrate: 33,28 Mbps
Video: MPEG-4 AVC Video / 24912 kbps / 1080p / 23,976 fps / 16:9 / High Profile 4.1
Audio: English / DTS-HD Master Audio / 5.1 / 48 kHz / 3871 kbps / 24-bit (DTS Core: 5.1 / 48 kHz / 1509 kbps / 24-bit)
Audio: English / Dolby Digital Audio / 5.1 / 48 kHz / 448 kbps
Audio: English / LPCM Audio / 2.0 / 48 kHz / 2304 kbps / 24-bit
********************
PLAYLIST: 00004.MPLS
********************
<--- BEGIN FORUMS PASTE --->
Код:
Total   Video
Title                                                           Codec   Length  Movie Size      Disc Size       Bitrate Bitrate Main Audio Track                          Secondary Audio Track
-----                                                           ------  ------- --------------  --------------  ------- ------- ------------------                        ---------------------
00004.MPLS                                                      MPEG-2  0:17:41 1 765 060 608   29 643 668 054  13,30   7,38    LPCM 2.0 1536Kbps (48kHz/16-bit)          LPCM 2.0 1536Kbps (48kHz/16-bit)
Код:
DISC INFO:
Disc Title:     YAD_VIV_BLUEBIRD
Disc Size:      29 643 668 054 bytes
Protection:     AACS
BD-Java:        No
BDInfo:         0.5.2
PLAYLIST REPORT:
Name:                   00004.MPLS
Size:                   1 765 060 608 bytes
Length:                 0:17:41 (h:m:s)
Total Bitrate:          13,30 Mbps
Description:
VIDEO:
Codec                   Bitrate             Description
-----                   -------             -----------
MPEG-2 Video            7375 kbps           576i / 25 fps / 16:9
AUDIO:
Codec                           Language        Bitrate         Description
-----                           --------        -------         -----------
LPCM Audio                      Russian         1536 kbps       2.0 / 48 kHz / 1536 kbps / 16-bit
LPCM Audio                      Russian         1536 kbps       2.0 / 48 kHz / 1536 kbps / 16-bit
LPCM Audio                      Russian         1536 kbps       2.0 / 48 kHz / 1536 kbps / 16-bit
FILES:
Name            Time In         Length          Size            Total Bitrate
----            -------         ------          ----            -------------
00010.M2TS      0:00:00.000     0:00:15.919     20 545 536      10 324
00011.M2TS      0:00:15.919     0:17:18.080     1 738 629 120   13 399
00012.M2TS      0:17:34.000     0:00:07.759     5 885 952       6 068
CHAPTERS:
Number          Time In         Length          Avg Video Rate  Max 1-Sec Rate  Max 1-Sec Time  Max 5-Sec Rate  Max 5-Sec Time  Max 10Sec Rate  Max 10Sec Time  Avg Frame Size  Max Frame Size  Max Frame Time
------          -------         ------          --------------  --------------  --------------  --------------  --------------  --------------  --------------  --------------  --------------  --------------
1               0:00:00.000     0:17:41.760     7 375 kbps      8 932 kbps      00:00:38.679    8 198 kbps      00:11:39.519    8 031 kbps      00:13:11.239    36 875 bytes    203 531 bytes   00:01:31.439
STREAM DIAGNOSTICS:
File            PID             Type            Codec           Language                Seconds                 Bitrate                 Bytes           Packets
----            ---             ----            -----           --------                --------------          --------------          -------------   -----
00010.M2TS      4113 (0x1011)   0x02            MPEG-2                                  15,840                  4 547                   9 002 614       49 139
00010.M2TS      4352 (0x1100)   0x80            LPCM            rus (Russian)           15,840                  1 550                   3 069 376       19 104
00010.M2TS      4353 (0x1101)   0x80            LPCM            rus (Russian)           15,840                  1 550                   3 069 376       19 104
00010.M2TS      4354 (0x1102)   0x80            LPCM            rus (Russian)           15,840                  1 550                   3 069 376       19 104
00011.M2TS      4113 (0x1011)   0x02            MPEG-2                                  1037,960                7 471                   969 385 299     5 283 490
00011.M2TS      4352 (0x1100)   0x80            LPCM            rus (Russian)           1037,960                1 543                   200 141 824     1 245 696
00011.M2TS      4353 (0x1101)   0x80            LPCM            rus (Russian)           1037,960                1 543                   200 141 824     1 245 696
00011.M2TS      4354 (0x1102)   0x80            LPCM            rus (Russian)           1037,960                1 543                   200 141 824     1 245 696
00012.M2TS      4113 (0x1011)   0x02            MPEG-2                                  7,640                   455                     434 410         2 447
00012.M2TS      4352 (0x1100)   0x80            LPCM            rus (Russian)           7,640                   1 567                   1 496 128       9 312
00012.M2TS      4353 (0x1101)   0x80            LPCM            rus (Russian)           7,640                   1 567                   1 496 128       9 312
00012.M2TS      4354 (0x1102)   0x80            LPCM            rus (Russian)           7,640                   1 567                   1 496 128       9 312
<---- END FORUMS PASTE ---->
QUICK SUMMARY:
Disc Title: YAD_VIV_BLUEBIRD
Disc Size: 29 643 668 054 bytes
Protection: AACS
BD-Java: No
Playlist: 00004.MPLS
Size: 1 765 060 608 bytes
Length: 0:17:41
Total Bitrate: 13,30 Mbps
Video: MPEG-2 Video / 7375 kbps / 576i / 25 fps / 16:9
Audio: Russian / LPCM Audio / 2.0 / 48 kHz / 1536 kbps / 16-bit
Audio: Russian / LPCM Audio / 2.0 / 48 kHz / 1536 kbps / 16-bit
Audio: Russian / LPCM Audio / 2.0 / 48 kHz / 1536 kbps / 16-bit
********************
PLAYLIST: 00002.MPLS
********************
<--- BEGIN FORUMS PASTE --->
Код:
Total   Video
Title                                                           Codec   Length  Movie Size      Disc Size       Bitrate Bitrate Main Audio Track                          Secondary Audio Track
-----                                                           ------  ------- --------------  --------------  ------- ------- ------------------                        ---------------------
00002.MPLS                                                      VC-1    0:12:37 1 425 887 232   29 643 668 054  15,06   12,98   DD AC3 5.1 448Kbps                        DD AC3 5.1 448Kbps
Код:
DISC INFO:
Disc Title:     YAD_VIV_BLUEBIRD
Disc Size:      29 643 668 054 bytes
Protection:     AACS
BD-Java:        No
BDInfo:         0.5.2
PLAYLIST REPORT:
Name:                   00002.MPLS
Size:                   1 425 887 232 bytes
Length:                 0:12:37 (h:m:s)
Total Bitrate:          15,06 Mbps
Description:
VIDEO:
Codec                   Bitrate             Description
-----                   -------             -----------
VC-1 Video              12985 kbps          1080p / 23,976 fps / 16:9 / Advanced Profile 3
AUDIO:
Codec                           Language        Bitrate         Description
-----                           --------        -------         -----------
Dolby Digital Audio             English         448 kbps        5.1 / 48 kHz / 448 kbps
Dolby Digital Audio             English         448 kbps        5.1 / 48 kHz / 448 kbps
Dolby Digital Audio             English         448 kbps        5.1 / 48 kHz / 448 kbps
FILES:
Name            Time In         Length          Size            Total Bitrate
----            -------         ------          ----            -------------
00005.M2TS      0:00:00.000     0:12:37.423     1 425 887 232   15 060
CHAPTERS:
Number          Time In         Length          Avg Video Rate  Max 1-Sec Rate  Max 1-Sec Time  Max 5-Sec Rate  Max 5-Sec Time  Max 10Sec Rate  Max 10Sec Time  Avg Frame Size  Max Frame Size  Max Frame Time
------          -------         ------          --------------  --------------  --------------  --------------  --------------  --------------  --------------  --------------  --------------  --------------
1               0:00:00.000     0:00:26.025     12 475 kbps     16 266 kbps     00:00:24.524    12 945 kbps     00:00:20.520    12 758 kbps     00:00:15.515    64 933 bytes    422 845 bytes   00:00:14.264
2               0:00:26.025     0:00:20.020     11 815 kbps     23 842 kbps     00:00:44.669    13 926 kbps     00:00:40.498    12 489 kbps     00:00:35.910    61 596 bytes    537 626 bytes   00:00:45.503
3               0:00:46.046     0:00:45.044     13 973 kbps     19 518 kbps     00:01:28.797    14 790 kbps     00:01:24.793    14 509 kbps     00:01:19.788    72 847 bytes    538 960 bytes   00:01:17.035
4               0:01:31.091     0:00:19.019     12 292 kbps     17 795 kbps     00:01:48.316    12 968 kbps     00:01:45.063    12 570 kbps     00:01:40.100    64 083 bytes    400 780 bytes   00:01:50.068
5               0:01:50.110     0:00:24.024     12 101 kbps     15 564 kbps     00:02:12.465    12 583 kbps     00:02:08.461    12 418 kbps     00:02:03.456    63 091 bytes    401 308 bytes   00:02:08.837
6               0:02:14.134     0:00:14.014     11 813 kbps     21 740 kbps     00:02:26.646    13 238 kbps     00:02:23.059    12 335 kbps     00:02:17.804    61 588 bytes    477 205 bytes   00:02:27.480
7               0:02:28.148     0:00:36.035     13 204 kbps     19 454 kbps     00:03:02.515    14 131 kbps     00:02:58.219    13 715 kbps     00:02:53.506    68 840 bytes    477 347 bytes   00:02:59.012
8               0:03:04.183     0:00:39.038     13 097 kbps     20 191 kbps     00:03:41.554    14 151 kbps     00:03:37.592    13 683 kbps     00:03:32.545    68 280 bytes    504 363 bytes   00:03:42.555
9               0:03:43.222     0:00:35.035     13 848 kbps     25 577 kbps     00:04:17.048    16 321 kbps     00:04:13.253    14 658 kbps     00:04:08.039    72 199 bytes    525 508 bytes   00:04:18.258
10              0:04:18.258     0:00:46.045     13 780 kbps     19 458 kbps     00:05:03.052    14 617 kbps     00:04:59.048    14 306 kbps     00:04:54.043    71 845 bytes    525 932 bytes   00:04:40.780
11              0:05:04.303     0:00:20.019     11 768 kbps     14 426 kbps     00:05:21.946    12 104 kbps     00:05:17.942    12 023 kbps     00:05:12.937    61 354 bytes    378 133 bytes   00:05:17.567
12              0:05:24.323     0:00:08.008     12 196 kbps     24 563 kbps     00:05:31.039    13 470 kbps     00:05:27.285    0 kbps          00:00:00.000    63 585 bytes    515 600 bytes   00:05:31.998
13              0:05:32.332     0:00:44.043     13 692 kbps     18 743 kbps     00:06:15.291    14 649 kbps     00:06:10.995    14 122 kbps     00:06:06.282    71 383 bytes    515 890 bytes   00:05:38.004
14              0:06:16.376     0:00:19.019     12 089 kbps     23 820 kbps     00:06:33.810    14 421 kbps     00:06:30.390    12 720 kbps     00:06:25.385    63 025 bytes    527 416 bytes   00:06:35.395
15              0:06:35.395     0:00:42.041     13 850 kbps     19 265 kbps     00:07:16.435    14 847 kbps     00:07:12.056    14 328 kbps     00:07:07.426    72 210 bytes    528 194 bytes   00:07:06.175
16              0:07:17.436     0:00:20.020     12 079 kbps     18 127 kbps     00:07:35.371    13 047 kbps     00:07:31.951    12 607 kbps     00:07:26.946    62 973 bytes    417 130 bytes   00:07:36.956
17              0:07:37.457     0:00:25.024     12 466 kbps     17 864 kbps     00:08:01.481    13 184 kbps     00:07:57.101    12 797 kbps     00:07:52.472    64 993 bytes    417 578 bytes   00:07:39.208
18              0:08:02.482     0:00:22.021     12 008 kbps     15 387 kbps     00:08:23.252    12 463 kbps     00:08:19.248    12 336 kbps     00:08:14.243    62 603 bytes    397 069 bytes   00:08:17.497
19              0:08:24.503     0:00:09.009     12 176 kbps     22 616 kbps     00:08:31.719    13 463 kbps     00:08:28.507    0 kbps          00:00:00.000    63 479 bytes    457 870 bytes   00:08:33.471
20              0:08:33.512     0:00:25.025     12 898 kbps     18 335 kbps     00:08:57.245    13 821 kbps     00:08:52.949    13 374 kbps     00:08:48.236    67 244 bytes    458 063 bytes   00:08:48.486
21              0:08:58.538     0:00:20.019     11 726 kbps     15 289 kbps     00:09:16.097    12 182 kbps     00:09:12.093    11 986 kbps     00:09:07.088    61 132 bytes    372 176 bytes   00:09:01.249
22              0:09:18.558     0:00:13.012     11 739 kbps     19 989 kbps     00:09:30.111    13 359 kbps     00:09:25.940    12 138 kbps     00:09:21.477    61 203 bytes    422 460 bytes   00:09:30.903
23              0:09:31.570     0:00:22.022     12 505 kbps     16 185 kbps     00:09:51.799    12 923 kbps     00:09:47.795    12 757 kbps     00:09:42.790    65 194 bytes    422 822 bytes   00:09:37.660
24              0:09:53.593     0:00:18.018     11 855 kbps     21 899 kbps     00:10:09.483    14 022 kbps     00:10:06.105    12 492 kbps     00:10:01.601    61 806 bytes    487 775 bytes   00:10:11.068
25              0:10:11.611     0:00:37.036     13 445 kbps     22 473 kbps     00:10:46.896    14 840 kbps     00:10:43.642    14 143 kbps     00:10:38.596    70 098 bytes    509 472 bytes   00:10:47.855
26              0:10:48.647     0:00:39.038     13 660 kbps     22 593 kbps     00:11:25.935    15 100 kbps     00:11:22.681    14 429 kbps     00:11:17.676    71 216 bytes    536 441 bytes   00:11:27.645
27              0:11:27.686     0:00:37.037     14 037 kbps     22 885 kbps     00:12:03.431    15 418 kbps     00:11:59.427    14 797 kbps     00:11:54.422    73 182 bytes    537 114 bytes   00:11:46.414
28              0:12:04.723     0:00:32.699     12 870 kbps     19 703 kbps     00:12:33.586    14 924 kbps     00:12:29.915    14 223 kbps     00:12:24.577    67 269 bytes    490 077 bytes   00:12:33.711
STREAM DIAGNOSTICS:
File            PID             Type            Codec           Language                Seconds                 Bitrate                 Bytes           Packets
----            ---             ----            -----           --------                --------------          --------------          -------------   -----
00005.M2TS      4113 (0x1011)   0xEA            VC-1                                    757,298                 12 987                  1 229 388 633   6 692 381
00005.M2TS      4352 (0x1100)   0x81            AC3             eng (English)           757,298                 447                     42 334 208      236 240
00005.M2TS      4353 (0x1101)   0x81            AC3             eng (English)           757,298                 447                     42 334 208      236 240
00005.M2TS      4354 (0x1102)   0x81            AC3             eng (English)           757,298                 447                     42 334 208      236 240
<---- END FORUMS PASTE ---->
QUICK SUMMARY:
Disc Title: YAD_VIV_BLUEBIRD
Disc Size: 29 643 668 054 bytes
Protection: AACS
BD-Java: No
Playlist: 00002.MPLS
Size: 1 425 887 232 bytes
Length: 0:12:37
Total Bitrate: 15,06 Mbps
Video: VC-1 Video / 12985 kbps / 1080p / 23,976 fps / 16:9 / Advanced Profile 3
Audio: English / Dolby Digital Audio / 5.1 / 48 kHz / 448 kbps
Audio: English / Dolby Digital Audio / 5.1 / 48 kHz / 448 kbps
Audio: English / Dolby Digital Audio / 5.1 / 48 kHz / 448 kbps
********************
PLAYLIST: 00000.MPLS
********************
<--- BEGIN FORUMS PASTE --->
Код:
Total   Video
Title                                                           Codec   Length  Movie Size      Disc Size       Bitrate Bitrate Main Audio Track                          Secondary Audio Track
-----                                                           ------  ------- --------------  --------------  ------- ------- ------------------                        ---------------------
00000.MPLS                                                      AVC     0:00:51 109 400 064     29 643 668 054  17,00   15,31   LPCM 2.0 2304Kbps (48kHz/24-bit)
Код:
DISC INFO:
Disc Title:     YAD_VIV_BLUEBIRD
Disc Size:      29 643 668 054 bytes
Protection:     AACS
BD-Java:        No
BDInfo:         0.5.2
PLAYLIST REPORT:
Name:                   00000.MPLS
Size:                   109 400 064 bytes
Length:                 0:00:51 (h:m:s)
Total Bitrate:          17,00 Mbps
Description:
VIDEO:
Codec                   Bitrate             Description
-----                   -------             -----------
MPEG-4 AVC Video        15311 kbps          1080p / 23,976 fps / 16:9 / High Profile 4.1
AUDIO:
Codec                           Language        Bitrate         Description
-----                           --------        -------         -----------
LPCM Audio                      English         2304 kbps       2.0 / 48 kHz / 2304 kbps / 24-bit
FILES:
Name            Time In         Length          Size            Total Bitrate
----            -------         ------          ----            -------------
00000.M2TS      0:00:00.000     0:00:20.603     41 834 496      16 243
00001.M2TS      0:00:20.603     0:00:20.854     64 905 216      24 899
00002.M2TS      0:00:41.458     0:00:10.009     2 660 352       2 126
CHAPTERS:
Number          Time In         Length          Avg Video Rate  Max 1-Sec Rate  Max 1-Sec Time  Max 5-Sec Rate  Max 5-Sec Time  Max 10Sec Rate  Max 10Sec Time  Avg Frame Size  Max Frame Size  Max Frame Time
------          -------         ------          --------------  --------------  --------------  --------------  --------------  --------------  --------------  --------------  --------------  --------------
1               0:00:00.000     0:00:51.468     15 311 kbps     46 288 kbps     00:00:31.030    40 483 kbps     00:00:28.194    32 693 kbps     00:00:25.608    79 825 bytes    545 123 bytes   00:00:02.252
STREAM DIAGNOSTICS:
File            PID             Type            Codec           Language                Seconds                 Bitrate                 Bytes           Packets
----            ---             ----            -----           --------                --------------          --------------          -------------   -----
00000.M2TS      4113 (0x1011)   0x1B            AVC                                     20,521                  15 558                  39 907 555      217 186
00001.M2TS      4113 (0x1011)   0x1B            AVC                                     20,729                  21 664                  56 133 865      305 377
00001.M2TS      4352 (0x1100)   0x80            LPCM            eng (English)           20,729                  2 226                   5 767 336       31 952
00002.M2TS      4113 (0x1011)   0x1B            AVC                                     9,885                   1 993                   2 462 491       13 508
<---- END FORUMS PASTE ---->
QUICK SUMMARY:
Disc Title: YAD_VIV_BLUEBIRD
Disc Size: 29 643 668 054 bytes
Protection: AACS
BD-Java: No
Playlist: 00000.MPLS
Size: 109 400 064 bytes
Length: 0:00:51
Total Bitrate: 17,00 Mbps
Video: MPEG-4 AVC Video / 15311 kbps / 1080p / 23,976 fps / 16:9 / High Profile 4.1
Audio: English / LPCM Audio / 2.0 / 48 kHz / 2304 kbps / 24-bit

_________________
Показать сообщения:    

Текущее время: Сегодня 20:50

Часовой пояс: GMT



Вы не можете начинать темы
Вы не можете отвечать на сообщения
Вы не можете редактировать свои сообщения
Вы не можете удалять свои сообщения
Вы не можете голосовать в опросах
Вы не можете прикреплять файлы к сообщениям
Вы не можете скачивать файлы