Важное объявление!
У Нас Все раздачи мультитрекерные, при нуле пиров в релизах, можете смело вставать на закачку!
 
Автор Сообщение

HUNTER

Стаж:
4 года 4 месяца
Сообщений:
56829

Репутация: 101

[+] [-]
Вне форума [Профиль] [ЛС]

Ядовитый плющ: Секретное общество / Poison Ivy: The Secret Society
Страна: США, Канада
Жанр: эротика, триллер, драма
Год выпуска: 2008
Продолжительность: 01:35:09
Перевод: Профессиональный (дублированный)
Cубтитры: нет
Оригинальная аудиодорожка: английский
Режиссер: Джейсон Хрено / Jason Hreno
В ролях: Мириам МакДональд, Шона Уолрод, Райан Кеннеди, Кристал Лоу, Андреа Уитберн, Грег Эвиган, Кэтрин Хикс, Брендан Пенни, Агам Дарши, Шейна Тианн Унгер
Описание: Дэниель Брукес, для друзей просто Дэйзи — сирота. Покинув ранчо своих знакомых, на котором она выросла, Дэйзи поступает в колледж. Для нее начинается новая и красивая жизнь: на нее обратил внимание красавец колледжа, сын декана, она получает долгожданную стипендию, а еще её приглашают в закрытое студенческое общество «Плющи». Но это общество нечто большее, чем просто секретное содружество. Общество состоит из страстных амбициозных искусительниц, которые яростно соблазняют, шантажируют или хладнокровно расправляются с любым, кто встанет на их пути… даже если это одна из них!
Сэмпл: http://multi-up.com/982418
Тип релиза: BDRip 1080p
Контейнер: MKV
Видео: MPEG-4 AVC (H264), 1920x1080, 23.976 fps, High Profile 4.1, ~11300 kbps avg, bit/(pixel*frame) 0.228
Аудио: Russian: 48 kHz, AC3, 3/2 (L,C,R,l,r) + LFE ch, ~384.00 kbps avg (дубляж)
Аудио 2: English: 48 kHz, AC3, 3/2 (L,C,R,l,r) + LFE ch, ~640.00 kbps avg (Original)
MediaInfo
Полное имя : C:\poison.ivy.the.secret.society.2008.stv.1080p.bluray.x264-hv.mkv
Формат : Matroska
Версия формата : Version 2
Размер файла : 8,20 Гбайт
Продолжительность : 1 ч. 35 м.
Общий поток : 12,3 Мбит/сек
Дата кодирования : UTC 2014-06-22 20:01:37
Программа кодирования : mkvmerge v4.8.0 ('I Got The...') сборка от May 24 2011 03:12:58
Библиотека кодирования : libebml v1.2.0 + libmatroska v1.1.0
Видео
Идентификатор : 1
Формат : AVC
Формат/Информация : Advanced Video Codec
Профиль формата : High@L4.1
Параметр CABAC формата : Да
Параметр ReFrames формата : 4 кадра
Режим смешивания : Header stripping
Идентификатор кодека : V_MPEG4/ISO/AVC
Продолжительность : 1 ч. 35 м.
Битрейт : 11,3 Мбит/сек
Ширина : 1920 пикселей
Высота : 1080 пикселей
Соотношение сторон : 16:9
Режим частоты кадров : Постоянный
Частота кадров : 23,976 кадра/сек
Цветовое пространство : YUV
Субдискретизация насыщенности : 4:2:0
Битовая глубина : 8 бит
Тип развёртки : Прогрессивная
Бит/(Пиксели*Кадры) : 0.228
Размер потока : 7,35 Гбайт (90%)
Библиотека кодирования : x264 core 80 r1376 3feaec2
Настройки программы : cabac=1 / ref=4 / deblock=1:0:0 / analyse=0x3:0x133 / me=umh / subme=7 / psy=1 / psy_rd=1.0:0.0 / mixed_ref=1 / me_range=16 / chroma_me=1 / trellis=1 / 8x8dct=1 / cqm=0 / deadzone=21,11 / fast_pskip=0 / chroma_qp_offset=-2 / threads=12 / sliced_threads=0 / nr=0 / decimate=1 / mbaff=0 / constrained_intra=0 / bframes=3 / b_pyramid=2 / b_adapt=1 / b_bias=0 / direct=1 / wpredb=1 / wpredp=2 / keyint=250 / keyint_min=25 / scenecut=40 / rc=2pass / mbtree=0 / bitrate=11312 / ratetol=1.0 / qcomp=0.60 / qpmin=10 / qpmax=51 / qpstep=4 / cplxblur=20.0 / qblur=0.5 / ip_ratio=1.40 / pb_ratio=1.30 / aq=1:1.00
Язык : English
Default : Да
Forced : Нет
Аудио #1
Идентификатор : 2
Формат : AC-3
Формат/Информация : Audio Coding 3
Расширение режима : CM (complete main)
Параметр Endianness формата : Big
Режим смешивания : Header stripping
Идентификатор кодека : A_AC3
Продолжительность : 1 ч. 35 м.
Вид битрейта : Постоянный
Битрейт : 384 Кбит/сек
Каналы : 6 каналов
Расположение каналов : Front: L C R, Side: L R, LFE
Частота : 48,0 КГц
Битовая глубина : 16 бит
Метод сжатия : С потерями
Размер потока : 261 Мбайт (3%)
Язык : Russian
Default : Да
Forced : Нет
Аудио #2
Идентификатор : 3
Формат : AC-3
Формат/Информация : Audio Coding 3
Расширение режима : CM (complete main)
Параметр Endianness формата : Big
Режим смешивания : Header stripping
Идентификатор кодека : A_AC3
Продолжительность : 1 ч. 35 м.
Вид битрейта : Постоянный
Битрейт : 640 Кбит/сек
Каналы : 6 каналов
Расположение каналов : Front: L C R, Side: L R, LFE
Частота : 48,0 КГц
Битовая глубина : 16 бит
Метод сжатия : С потерями
Размер потока : 436 Мбайт (5%)
Язык : English
Default : Нет
Forced : Нет
Скриншоты

_________________
Показать сообщения:    

Текущее время: Сегодня 13:50

Часовой пояс: GMT



Вы не можете начинать темы
Вы не можете отвечать на сообщения
Вы не можете редактировать свои сообщения
Вы не можете удалять свои сообщения
Вы не можете голосовать в опросах
Вы не можете прикреплять файлы к сообщениям
Вы не можете скачивать файлы