Важное объявление!
У Нас Все раздачи мультитрекерные, при нуле пиров в релизах, можете смело вставать на закачку!
 
Автор Сообщение

HUNTER

Стаж:
4 года 4 месяца
Сообщений:
56842

Репутация: 101

[+] [-]
Вне форума [Профиль] [ЛС]

Я, Франкенштейн / I, Frankenstein

-
-Страна: США, Австралия
Студия: Hopscotch Features, Lakeshore Entertainment
Жанр: фэнтези, боевик, приключения
Год выпуска: 2014
Продолжительность: 01:32:24--Перевод: Профессиональный (дублированный) Blu-ray
Cубтитры: русские, английские SDH
Оригинальная аудиодорожка: английский--Режиссер: Стюарт Битти / Stuart Beattie
В ролях: Аарон Экхарт, Ивонн Страховски, Миранда Отто, Билл Найи, Джай Кортни, Сократис Отто, Аден Янг, Кэйтлин Стэйси, Махеш Джаду, Стив Музакис--Описание: Он — монстр. Он — двухсотлетний плод безумной фантазии своего создателя. Он — легенда. Мир, в котором он живет, населен древними горгульями и бессмертными демонами, которые сражаются за обладание человечеством. Величественные соборы скрывают огромные арсеналы, за дверьми научных лабораторий проводятся эксперименты по воскрешению мертвых. Война двух кланов могущественных существ достигает своего пика. И только он, Адам, монстр Франкенштейна, в силах ее остановить.--imdb | kinopoisk | Сэмпл--Тип релиза: BDRip 720p [I, Frankenstein 2014 720p BluRay DTS x264-EbP]
Контейнер: MKV
Видео: MPEG-4 AVC / 9200 Kbps / 1280x534 / 23,976 fps / 2,40:1 / High Profile 4.1
Аудио 1: Russian AC3 / 5.1 / 48 kHz / 640 kbps / 16 bits |Dub, Blu-ray|
Аудио 2: English AC3 / 5.1 / 48 kHz / 640 kbps / 16 bits |original|
Аудио 3: English AC3 / 2.0 / 48 kHz / 256 kbps / 16 bits |Аудиокомментарии №1|
Аудио 4: English AC3 / 2.0 / 48 kHz / 256 kbps / 16 bits |Аудиокомментарии №2|
Формат субтитров: softsub [SRT]

MediaInfo
Код:
Общее
Уникальный идентификатор                 : 245669385006580090815440083788510335505 (0xB8D233D70FE48327BB5777EC5D2D1211)
Полное имя                               : G:\HD\Я Франкенштейн.2014.BDRip.(720p).mkv
Формат                                   : Matroska
Версия формата                           : Version 4 / Version 2
Размер файла                             : 7,24 Гбайт
Продолжительность                        : 1 ч. 32 м.
Общий поток                              : 11,2 Мбит/сек
Дата кодирования                         : UTC 2014-05-03 12:24:55
Программа кодирования                    : mkvmerge v6.9.1 ('Blue Panther') 64bit built on Apr 18 2014 18:23:38
Библиотека кодирования                   : libebml v1.3.0 + libmatroska v1.4.1
Attachment                               : Yes
Видео
Идентификатор                            : 1
Формат                                   : AVC
Формат/Информация                        : Advanced Video Codec
Профиль формата                          : High@L4.1
Параметр CABAC формата                   : Да
Параметр ReFrames формата                : 12 кадров
Идентификатор кодека                     : V_MPEG4/ISO/AVC
Продолжительность                        : 1 ч. 32 м.
Битрейт                                  : 9200 Кбит/сек
Ширина                                   : 1280 пикселей
Высота                                   : 534 пикселя
Соотношение сторон                       : 2,40:1
Режим частоты кадров                     : Постоянный
Частота кадров                           : 23,976 кадра/сек
Цветовое пространство                    : YUV
Субдискретизация насыщенности            : 4:2:0
Битовая глубина                          : 8 бит
Тип развёртки                            : Прогрессивная
Бит/(Пиксели*Кадры)                      : 0.561
Размер потока                            : 5,94 Гбайт (82%)
Заголовок                                : I, Frankenstein 2014 720p BluRay DTS x264-EbP
Библиотека кодирования                   : x264 core 142 r2431kMod ac76440
Настройки программы                      : cabac=1 / ref=12 / deblock=1:-3:-3 / analyse=0x3:0x133 / me=umh / subme=10 / psy=1 / fade_compensate=0.00 / psy_rd=1.00:0.00 / mixed_ref=1 / me_range=32 / chroma_me=1 / trellis=2 / 8x8dct=1 / cqm=0 / deadzone=21,11 / fast_pskip=0 / chroma_qp_offset=-2 / threads=12 / lookahead_threads=3 / sliced_threads=0 / nr=0 / decimate=0 / interlaced=0 / bluray_compat=0 / constrained_intra=0 / fgo=0 / bframes=10 / b_pyramid=2 / b_adapt=2 / b_bias=0 / direct=3 / weightb=1 / open_gop=0 / weightp=2 / keyint=250 / keyint_min=23 / scenecut=40 / intra_refresh=0 / rc_lookahead=60 / rc=crf / mbtree=0 / crf=15.0000 / qcomp=0.60 / qpmin=0 / qpmax=69 / qpstep=4 / vbv_maxrate=62500 / vbv_bufsize=78125 / crf_max=0.0 / nal_hrd=none / filler=0 / ip_ratio=1.30 / pb_ratio=1.20 / aq=1:0.70
Язык                                     : English
Default                                  : Да
Forced                                   : Нет
Основные цвета                           : BT.709
Характеристики трансфера                 : BT.709
Коэффициенты матрицы                     : BT.709
Аудио #1
Идентификатор                            : 2
Формат                                   : AC-3
Формат/Информация                        : Audio Coding 3
Расширение режима                        : CM (complete main)
Параметр Endianness формата              : Big
Идентификатор кодека                     : A_AC3
Продолжительность                        : 1 ч. 32 м.
Вид битрейта                             : Постоянный
Битрейт                                  : 640 Кбит/сек
Каналы                                   : 6 каналов
Расположение каналов                     : Front: L C R, Side: L R, LFE
Частота                                  : 48,0 КГц
Битовая глубина                          : 16 бит
Метод сжатия                             : С потерями
Размер потока                            : 423 Мбайт (6%)
Язык                                     : Russian
Default                                  : Да
Forced                                   : Нет
Аудио #2
Идентификатор                            : 3
Формат                                   : AC-3
Формат/Информация                        : Audio Coding 3
Расширение режима                        : CM (complete main)
Параметр Endianness формата              : Big
Идентификатор кодека                     : A_AC3
Продолжительность                        : 1 ч. 32 м.
Вид битрейта                             : Постоянный
Битрейт                                  : 640 Кбит/сек
Каналы                                   : 6 каналов
Расположение каналов                     : Front: L C R, Side: L R, LFE
Частота                                  : 48,0 КГц
Битовая глубина                          : 16 бит
Метод сжатия                             : С потерями
Размер потока                            : 423 Мбайт (6%)
Язык                                     : English
Default                                  : Нет
Forced                                   : Нет
Аудио #3
Идентификатор                            : 4
Формат                                   : AC-3
Формат/Информация                        : Audio Coding 3
Расширение режима                        : CM (complete main)
Параметр Endianness формата              : Big
Идентификатор кодека                     : A_AC3
Продолжительность                        : 1 ч. 32 м.
Вид битрейта                             : Постоянный
Битрейт                                  : 256 Кбит/сек
Каналы                                   : 2 канала
Расположение каналов                     : Front: L R
Частота                                  : 48,0 КГц
Битовая глубина                          : 16 бит
Метод сжатия                             : С потерями
Размер потока                            : 169 Мбайт (2%)
Заголовок                                : Аудиокомментарии №1
Язык                                     : English
Default                                  : Нет
Forced                                   : Нет
Аудио #4
Идентификатор                            : 5
Формат                                   : AC-3
Формат/Информация                        : Audio Coding 3
Расширение режима                        : CM (complete main)
Параметр Endianness формата              : Big
Идентификатор кодека                     : A_AC3
Продолжительность                        : 1 ч. 32 м.
Вид битрейта                             : Постоянный
Битрейт                                  : 256 Кбит/сек
Каналы                                   : 2 канала
Расположение каналов                     : Front: L R
Частота                                  : 48,0 КГц
Битовая глубина                          : 16 бит
Метод сжатия                             : С потерями
Размер потока                            : 169 Мбайт (2%)
Заголовок                                : Аудиокомментарии №2
Язык                                     : English
Default                                  : Нет
Forced                                   : Нет
Текст #1
Идентификатор                            : 6
Формат                                   : UTF-8
Идентификатор кодека                     : S_TEXT/UTF8
Идентификатор кодека/Информация          : UTF-8 Plain Text
Язык                                     : Russian
Default                                  : Нет
Forced                                   : Нет
Текст #2
Идентификатор                            : 7
Формат                                   : UTF-8
Идентификатор кодека                     : S_TEXT/UTF8
Идентификатор кодека/Информация          : UTF-8 Plain Text
Заголовок                                : SDH
Язык                                     : English
Default                                  : Нет
Forced                                   : Нет
Меню
00:00:00.000                             : :Chapter 01
00:02:28.857                             : :Chapter 02
00:04:56.421                             : :Chapter 03
00:09:19.767                             : :Chapter 04
00:12:02.471                             : :Chapter 05
00:17:39.725                             : :Chapter 06
00:21:26.994                             : :Chapter 07
00:24:58.497                             : :Chapter 08
00:29:42.614                             : :Chapter 09
00:33:49.569                             : :Chapter 10
00:37:56.274                             : :Chapter 11
00:43:54.631                             : :Chapter 12
00:48:23.233                             : :Chapter 13
00:52:29.187                             : :Chapter 14
00:56:04.736                             : :Chapter 15
00:59:56.301                             : :Chapter 16
01:06:15.513                             : :Chapter 17
01:08:58.467                             : :Chapter 18
01:12:59.333                             : :Chapter 19
01:16:24.538                             : :Chapter 20
01:20:22.859                             : :Chapter 21
01:22:00.665                             : :Chapter 22
СкриншотыI, Frankenstein 2014 720p BluRay DTS x264-EbP
Код:
Release info
RELEASE DATE........: 02/05/2014
RELEASE SIZE........: 7.15 GB
RUNTIME.............: 1h:32m
VIDEO CODEC.........: x264.2431kMod.x86_64 / CRF 15 /  L4.1
VIDEO BITRATE.......: 9 235 Kbps
RESOLUTION..........: 1280x534
FRAMERATE...........: 23.976 fps
AUDIO1..............: English DTS @ 1509 Kbps
AUDIO2..............: English AAC 2.0 @ 150 Kbps - quality 0.5 (Commentary with Director Stuart Beattie)
SUBTITLES - SRT.....: Eng, Spa, Swe, Rum
CHAPTERS............: Included
SOURCE..............: I, Frankenstein 2014 1080p 3D Blu-ray AVC DTS-HD MA 5.1-PublicHD
x264 log
x264 [info]: frame I:1357  Avg QP:14.06  size:133615
x264 [info]: frame P:32442 Avg QP:15.48  size: 68753
x264 [info]: frame B:99118 Avg QP:17.04  size: 41529
x264 [info]: consecutive B-frames:  2.9% 10.0%  7.7% 18.4% 17.2% 34.7%  5.1%  1.2%  1.1%  0.8%  0.9%
Source vs Encode



_________________
Показать сообщения:    

Текущее время: Сегодня 11:45

Часовой пояс: GMT



Вы не можете начинать темы
Вы не можете отвечать на сообщения
Вы не можете редактировать свои сообщения
Вы не можете удалять свои сообщения
Вы не можете голосовать в опросах
Вы не можете прикреплять файлы к сообщениям
Вы не можете скачивать файлы