Важное объявление!
У Нас Все раздачи мультитрекерные, при нуле пиров в релизах, можете смело вставать на закачку!
 
Автор Сообщение

HUNTER

Стаж:
4 года 4 месяца
Сообщений:
56790

Репутация: 101

[+] [-]
Вне форума [Профиль] [ЛС]

Я исповедуюсь / I Confess-
Год выпуска: 1953
Страна: США
Жанр: триллер, драма
Продолжительность: 01:34:36
Перевод 1: Профессиональный (многоголосый закадровый) Film Prestige
Перевод 2: Профессиональный (двухголосый закадровый) DVD Classic
Оригинальная аудиодорожка: Английская
Cубтитры: Русские, английские-Режиссер: Альфред Хичкок / Alfred Hitchcock
В ролях: Монтгомери Клифт, Энн Бакстер, Карл Молден, Брайан Ахерн, О.Э. Хассе, Роджер Дэнн, Долли Хаас, Чарльз Андре, Нэн Бордман, Генри Корден-Описание:
Отец Майкл — образец церковной добродетели — выслушивает исповедь убийцы и попадает в расставленную им ловушку. Показания свидетелей неумолимо указывают на самого священника, но сан запрещает ему разглашать тайну исповеди даже ради собственного алиби! Он ждет суд за убийство, которое не совершал, и перед лицом смерти должен решиться на какой-то шаг. Священна ли тайна исповеди, если благодаря ей преступник останется на свободе и снова сможет убивать...-За дорожки спасибо dima358 и meverik777.
| IMDb | Сэмпл-Качество: WEB-DL 720p (brento)
Контейнер: MKV
Видео: AVC, 982x720 (1.33:1), 23.976 fps, 3973 kbps
Аудио 1: Русский AC3 2.0, 48 kHz, 192 kbps — Film Prestige
Аудио 2: Русский AC3 2.0, 48 kHz, 192 kbps — DVD Classic
Аудио 3: Английский AC3 1.0, 48 kHz, 192 kbps
Аудио 4: Английкий AAC 2.0, 48 kHz, 128 kbps
Формат субтитров: softsub (SRT)
СкриншотыMI
General
Unique ID : 176781360565599866153717212729771526386 (0x84FEDA01F3A28C588FDA4643656F88F2)
Complete name : I Confess 1953 720p WEB-DL H.264-brento.mkv
Format : Matroska
Format version : Version 2
File size : 3.09 GiB
Duration : 1h 34mn
Overall bit rate : 4 680 Kbps
Movie name : I Confess / Я исповедуюсь (1953) – RuTracker
Encoded date : UTC 2014-06-26 19:49:09
Writing application : mkvmerge v7.0.0 ('Where We Going') 64bit built on Jun 9 2014 15:16:27
Writing library : libebml v1.3.0 + libmatroska v1.4.1
Attachment : Yes
Video
ID : 1
Format : AVC
Format/Info : Advanced Video Codec
Format profile : High@L3.1
Format settings, CABAC : No
Format settings, ReFrames : 2 frames
Codec ID : V_MPEG4/ISO/AVC
Duration : 1h 34mn
Width : 982 pixels
Height : 720 pixels
Display aspect ratio : 4:3
Frame rate mode : Constant
Frame rate : 23.976 fps
Color space : YUV
Chroma subsampling : 4:2:0
Bit depth : 8 bits
Scan type : Progressive
Title : I Confess 1953 720p WEB-DL AAC2.0 H.264-brento
Language : English
Default : Yes
Forced : No
Color primaries : BT.709
Transfer characteristics : BT.709
Matrix coefficients : BT.709
Audio #1
ID : 2
Format : AC-3
Format/Info : Audio Coding 3
Mode extension : CM (complete main)
Format settings, Endianness : Big
Codec ID : A_AC3
Duration : 1h 34mn
Bit rate mode : Constant
Bit rate : 192 Kbps
Channel(s) : 2 channels
Channel positions : Front: L R
Sampling rate : 48.0 KHz
Bit depth : 16 bits
Compression mode : Lossy
Stream size : 130 MiB (4%)
Title : MVO – Film Prestige
Language : Russian
Default : Yes
Forced : No
Audio #2
ID : 3
Format : AC-3
Format/Info : Audio Coding 3
Mode extension : CM (complete main)
Format settings, Endianness : Big
Codec ID : A_AC3
Duration : 1h 34mn
Bit rate mode : Constant
Bit rate : 192 Kbps
Channel(s) : 2 channels
Channel positions : Front: L R
Sampling rate : 48.0 KHz
Bit depth : 16 bits
Compression mode : Lossy
Stream size : 130 MiB (4%)
Title : DVO – DVD Classic
Language : Russian
Default : No
Forced : No
Audio #3
ID : 4
Format : AC-3
Format/Info : Audio Coding 3
Mode extension : CM (complete main)
Format settings, Endianness : Big
Codec ID : A_AC3
Duration : 1h 34mn
Bit rate mode : Constant
Bit rate : 192 Kbps
Channel(s) : 1 channel
Channel positions : Front: C
Sampling rate : 48.0 KHz
Bit depth : 16 bits
Compression mode : Lossy
Stream size : 130 MiB (4%)
Title : Original (DVD)
Language : English
Default : No
Forced : No
Audio #4
ID : 5
Format : AAC
Format/Info : Advanced Audio Codec
Format profile : LC
Codec ID : A_AAC
Duration : 1h 34mn
Channel(s) : 2 channels
Channel positions : Front: L R
Sampling rate : 48.0 KHz
Compression mode : Lossy
Title : Original (iTunes)
Language : English
Default : No
Forced : No
Text #1
ID : 6
Format : UTF-8
Codec ID : S_TEXT/UTF8
Codec ID/Info : UTF-8 Plain Text
Title : Film Prestige
Language : Russian
Default : No
Forced : No
Text #2
ID : 7
Format : UTF-8
Codec ID : S_TEXT/UTF8
Codec ID/Info : UTF-8 Plain Text
Language : English
Default : No
Forced : No
Menu
00:00:00.000 : en:Credits and a pedestrian.
00:02:00.000 : en:Church encounter.
00:05:10.000 : en:I have killed.
00:08:18.000 : en:How fortunate we are.
00:12:20.000 : en:Crime scene.
00:15:53.000 : en:Easy to be good.
00:19:32.000 : en:What two schoolgirls saw.
00:25:00.000 : en:Not possible to answer.
00:31:16.000 : en:A woman in love.
00:36:19.000 : en:Ferry rendezvous.
00:39:49.000 : en:Determined to explain.
00:46:09.000 : en:A matter of blackmail.
00:48:18.000 : en:Young lovers.
00:52:35.000 : en:Rain-soaked reunion.
00:56:17.000 : en:Dealing with Vilette.
00:59:35.000 : en:What have I done?
01:02:21.000 : en:Killer and confessor.
01:05:39.000 : en:Through Quebec's streets.
01:10:00.000 : en:On trial.
01:14:11.000 : en:Caught in a storm.
01:20:52.000 : en:The verdict.
01:24:03.000 : en:Hostile mob.
01:26:03.000 : en:The killer revealed.
01:29:43.000 : en:A man alone.
01:33:42.000 : en:Final Confession

_________________
Показать сообщения:    

Текущее время: Сегодня 15:25

Часовой пояс: GMT



Вы не можете начинать темы
Вы не можете отвечать на сообщения
Вы не можете редактировать свои сообщения
Вы не можете удалять свои сообщения
Вы не можете голосовать в опросах
Вы не можете прикреплять файлы к сообщениям
Вы не можете скачивать файлы