Важное объявление!
У Нас Все раздачи мультитрекерные, при нуле пиров в релизах, можете смело вставать на закачку!
 
Автор Сообщение

HUNTER

Стаж:
4 года 4 месяца
Сообщений:
56848

Репутация: 101

[+] [-]
Вне форума [Профиль] [ЛС]

Я - начало / I Origins
Страна: США
Студия: Verisimilitude, WeWork Studios
Жанр: фантастика, драма
Год выпуска: 2014
Продолжительность: 01:47:35
Перевод: Профессиональный (многоголосый закадровый) iTunes
Cубтитры: русские, украинские, английские
Оригинальная аудиодорожка: английский
Режиссер: Майк Кэхилл / Mike Cahill
В ролях: Майкл Питт, Стивен Ян, Астрид Берже-Фрисби, Брит Марлинг, Дориен Маклоги, Чарльз В. Грэй, Джон Шиумо, Фараша Бэйлок, Ако, Кристофер Сантамария
Описание: Ян Грей, специалист по молекулярной биологии в области эволюции глаз, как-то раз, оставив свою лабораторию, отправляется на вечеринку. И знакомится там с таинственной незнакомкой, которая уходит от него в ночь. Но главный герой настойчив – имея в памяти лишь картину ее прекрасных глаз, он находит ее, и они влюбляются друг в друга. Их принципиально разные взгляды на жизнь лишь еще сильнее связывают их, и влюбленные клянутся оставаться вместе всегда. Годы спустя Ян и его коллега – ученая Карен делают ошеломляющее открытие, способное обернуться серьезными последствиями. Рискуя делом всей своей жизни и своей семьей, герой фантастической драмы «Я – начало» отправляется в путешествие по миру, чтобы отыскать правду о том, что он открыл, и узнать, к чему это открытие может привести...

Тип релиза: BDRip 720p [VietHD]
Контейнер: MKV
Видео: AVC, 1280x534, 6539 kbps, 23.976 fps
Аудио 1: Russian: 48 kHz, AC3, 3/2 (L,C,R,l,r) + LFE ch, ~384.00 kbps avg |iTunes|
Аудио 2: English: 48 kHz, AC3, 3/2 (L,C,R,l,r) + LFE ch, ~640.00 kbps avg |Original|
Чаптеры:есть

x264 log

x264 [info]: frame I:1078 Avg QP:14.98 size:101236
x264 [info]: frame P:27240 Avg QP:16.25 size: 51980
x264 [info]: frame B:126441 Avg QP:17.67 size: 30578
x264 [info]: consecutive B-frames: 1.1% 0.8% 4.0% 7.9% 12.1% 51.5% 6.9% 1.2% 3.5% 4.1% 4.5% 2.4%
encoded 154759 frames, 3.49 fps, 6682.13 kb/s, duration 12:18:36.83

MediaInfo

General
Unique ID : 222163530428436510393866218393652770980 (0xA72323BB88B150C78B56F7C832D938A4)
Complete name : D:\дорога\I Origins 2014 720p.BluRay.DD5.1.x264-Talian-.mkv
Format : Matroska
Format version : Version 2
File size : 5.79 GiB
Duration : 1h 47mn
Overall bit rate : 7 704 Kbps
Movie name : I Origins-Talian-
Encoded date : UTC 2014-12-20 10:09:53
Writing application : mkvmerge v5.7.0 ('The Whirlwind') built on Jul 8 2012 20:08:51
Writing library : libebml v1.2.3 + libmatroska v1.3.0
Video
ID : 1
Format : AVC
Format/Info : Advanced Video Codec
Format profile : High@L4.1
Format settings, CABAC : Yes
Format settings, ReFrames : 12 frames
Codec ID : V_MPEG4/ISO/AVC
Duration : 1h 47mn
Bit rate : 6 527 Kbps
Width : 1 280 pixels
Height : 534 pixels
Display aspect ratio : 2.40:1
Frame rate : 23.976 fps
Color space : YUV
Chroma subsampling : 4:2:0
Bit depth : 8 bits
Scan type : Progressive
Bits/(Pixel*Frame) : 0.398
Stream size : 4.91 GiB (85%)
Title : VietHD
Writing library : x264 core 142 r2479kMod dd79a61
Encoding settings : cabac=1 / ref=12 / deblock=1:-3:-3 / analyse=0x3:0x133 / me=umh / subme=10 / psy=1 / fade_compensate=0.00 / psy_rd=1.08:0.00 / mixed_ref=1 / me_range=24 / chroma_me=1 / trellis=2 / 8x8dct=1 / cqm=0 / deadzone=21,11 / fast_pskip=1 / chroma_qp_offset=-2 / threads=6 / lookahead_threads=1 / sliced_threads=0 / nr=0 / decimate=1 / interlaced=0 / bluray_compat=0 / constrained_intra=0 / fgo=0 / bframes=11 / b_pyramid=2 / b_adapt=2 / b_bias=0 / direct=3 / weightb=1 / open_gop=0 / weightp=2 / keyint=250 / keyint_min=23 / scenecut=40 / intra_refresh=0 / rc=crf / mbtree=0 / crf=17.3000 / qcomp=0.65 / qpmin=0 / qpmax=69 / qpstep=4 / ip_ratio=1.30 / pb_ratio=1.20 / aq=3:0.68
Language : English
Default : Yes
Forced : No
Matrix coefficients : BT.709-5, BT.1361, IEC 61966-2-4 709, SMPTE RP177
Audio #1
ID : 2
Format : AC-3
Format/Info : Audio Coding 3
Mode extension : CM (complete main)
Format settings, Endianness : Big
Codec ID : A_AC3
Duration : 1h 47mn
Bit rate mode : Constant
Bit rate : 384 Kbps
Channel(s) : 6 channels
Channel positions : Front: L C R, Side: L R, LFE
Sampling rate : 48.0 KHz
Bit depth : 16 bits
Compression mode : Lossy
Stream size : 296 MiB (5%)
Title : MVO-iTunes
Language : Russian
Default : Yes
Forced : No
Audio #2
ID : 3
Format : AC-3
Format/Info : Audio Coding 3
Mode extension : CM (complete main)
Format settings, Endianness : Big
Codec ID : A_AC3
Duration : 1h 47mn
Bit rate mode : Constant
Bit rate : 640 Kbps
Channel(s) : 6 channels
Channel positions : Front: L C R, Side: L R, LFE
Sampling rate : 48.0 KHz
Bit depth : 16 bits
Compression mode : Lossy
Stream size : 493 MiB (8%)
Title : Original
Language : English
Default : No
Forced : No
Text #1
ID : 4
Format : UTF-8
Codec ID : S_TEXT/UTF8
Codec ID/Info : UTF-8 Plain Text
Title : Sub
Language : Russian
Default : No
Forced : No
Text #2
ID : 5
Format : UTF-8
Codec ID : S_TEXT/UTF8
Codec ID/Info : UTF-8 Plain Text
Title : Sub
Language : Ukrainian
Default : No
Forced : No
Text #3
ID : 6
Format : UTF-8
Codec ID : S_TEXT/UTF8
Codec ID/Info : UTF-8 Plain Text
Title : Sub
Language : English
Default : No
Forced : No
Menu
00:00:00.000 : en:00:00:00.000
00:02:40.619 : en:00:02:40.619
00:05:32.707 : en:00:05:32.707
00:07:23.693 : en:00:07:23.693
00:12:35.505 : en:00:12:35.505
00:13:52.206 : en:00:13:52.206
00:16:43.252 : en:00:16:43.252
00:19:00.973 : en:00:19:00.973
00:21:32.666 : en:00:21:32.666
00:25:36.535 : en:00:25:36.535
00:29:38.026 : en:00:29:38.026
00:32:51.219 : en:00:32:51.219
00:36:25.225 : en:00:36:25.225
00:42:30.131 : en:00:42:30.131
00:46:37.920 : en:00:46:37.920
00:50:51.048 : en:00:50:51.048
00:54:16.295 : en:00:54:16.295
00:58:26.336 : en:00:58:26.336
01:02:26.368 : en:01:02:26.368
01:05:25.755 : en:01:05:25.755
01:07:49.357 : en:01:07:49.357
01:12:53.327 : en:01:12:53.327
01:16:32.087 : en:01:16:32.087
01:18:40.007 : en:01:18:40.007
01:21:18.916 : en:01:21:18.916
01:24:00.244 : en:01:24:00.244
01:26:06.703 : en:01:26:06.703
01:27:52.350 : en:01:27:52.350
01:32:45.518 : en:01:32:45.518
01:37:39.604 : en:01:37:39.604
01:39:03.396 : en:01:39:03.396
01:42:23.346 : en:01:42:23.346

Скриншоты

SOURCE|VietHD|Scene



_________________
Показать сообщения:    

Текущее время: Сегодня 01:15

Часовой пояс: GMT



Вы не можете начинать темы
Вы не можете отвечать на сообщения
Вы не можете редактировать свои сообщения
Вы не можете удалять свои сообщения
Вы не можете голосовать в опросах
Вы не можете прикреплять файлы к сообщениям
Вы не можете скачивать файлы
Наши партнеры: интернет магазин Ивановского трикотажа textilla.ru