Важное объявление!
У Нас Все раздачи мультитрекерные, при нуле пиров в релизах, можете смело вставать на закачку!
 
Автор Сообщение

HUNTER

Стаж:
4 года 4 месяца
Сообщений:
56848

Репутация: 101

[+] [-]
Вне форума [Профиль] [ЛС]

Юлий Цезарь / Julius Caesar
Страна: США
Студия: Metro-Goldwyn-Mayer (MGM)
Жанр: драма, история
Год выпуска: 1953
Продолжительность: 02:01:18
Перевод: Профессиональный (многоголосый закадровый) НТВ+ по заказу НТВ
Перевод 2: Профессиональный (двухголосый закадровый) Студия "Пифагор" по заказу ГТРК "Культура"
Cубтитры: английские
Оригинальная аудиодорожка: английский
Режиссер: Джозеф Лео Манкевич / Joseph Leo Mankiewicz
В ролях: Марлон Брандо, Джеймс Мейсон, Джон Гилгуд, Луи Кэлхерн, Эдмонд О’Брайен, Грир Гарсон, Дебора Керр, Джордж Макреди, Майкл Пэйт, Ричард Хейл
Описание: Разгромив войска Помпея, римский полководец Цезарь стал главой государства. Он обладал пожизненными полномочиями диктатора, ему было дано исключительное право распоряжаться войском и казной. В честь него была воздвигнута статуя с надписью «Полубогу». Кассий и Брут возглавили заговор против Цезаря.
Жена Цезаря Кальпурния была напугана плохими знамениями, неоднократно предупреждала об опасности. В мартовские иды 44 г. до н. э. в Капитолии, во время заседания сената, Цезарь был убит. После бегства заговорщиков в Рим прибыл приемный сын Цезаря Октавий. Вместе с Антонием они начали готовиться к войне против войск Брута и Кассия.


Sample
Тип релиза: WEB-DL 1080p
Контейнер: MKV
Видео: MPEG4 AVC Video, H264, 16:9, 1480x1076, 23.976 fps, 4948 kbps
Аудио: Russian (AC3, 2 ch, 192 kbps, 16 bits, 48.0 KHz) - НТВ+
Аудио 2: Russian (AC3, 2 ch, 192 kbps, 16 bits, 48.0 KHz) - Пифагор
Аудио 3: English (AC3, 6 ch, 384 kbps, 16 bits, 48.0 KHz) - оригинал
Формат субтитров: softsub (SRT)

MediaInfo

General
Unique ID : 178235329639131065968029013123723037743 (0x8616E037B42F3E8596EAECD179160C2F)
Complete name : L:\Julius Caesar 1953 WEB-DL 1080p.mkv
Format : Matroska
Format version : Version 4 / Version 2
File size : 4.94 GiB
Duration : 2h 1mn
Overall bit rate : 5 832 Kbps
Encoded date : UTC 2015-12-06 23:04:34
Writing application : mkvmerge v6.1.0 ('Old Devil') built on Mar 2 2013 14:32:37
Writing library : libebml v1.3.0 + libmatroska v1.4.0
Video
ID : 1
Format : AVC
Format/Info : Advanced Video Codec
Format profile : High@L4.0
Format settings, CABAC : Yes
Format settings, ReFrames : 5 frames
Codec ID : V_MPEG4/ISO/AVC
Duration : 2h 1mn
Bit rate : 4 948 Kbps
Width : 1 480 pixels
Height : 1 076 pixels
Display aspect ratio : 1.375
Frame rate mode : Constant
Frame rate : 23.976 fps
Color space : YUV
Chroma subsampling : 4:2:0
Bit depth : 8 bits
Scan type : Progressive
Bits/(Pixel*Frame) : 0.130
Stream size : 4.19 GiB (85%)
Language : English
Default : Yes
Forced : No
Color primaries : BT.709
Transfer characteristics : BT.709
Matrix coefficients : BT.709
Audio #1
ID : 2
Format : AC-3
Format/Info : Audio Coding 3
Mode extension : CM (complete main)
Format settings, Endianness : Big
Codec ID : A_AC3
Duration : 2h 1mn
Bit rate mode : Constant
Bit rate : 192 Kbps
Channel count : 2 channels
Channel positions : Front: L R
Sampling rate : 48.0 KHz
Bit depth : 16 bits
Compression mode : Lossy
Stream size : 167 MiB (3%)
Title : MVO НТВ+
Language : Russian
Default : Yes
Forced : No
Audio #2
ID : 3
Format : AC-3
Format/Info : Audio Coding 3
Mode extension : CM (complete main)
Format settings, Endianness : Big
Codec ID : A_AC3
Duration : 2h 1mn
Bit rate mode : Constant
Bit rate : 192 Kbps
Channel count : 2 channels
Channel positions : Front: L R
Sampling rate : 48.0 KHz
Bit depth : 16 bits
Compression mode : Lossy
Stream size : 167 MiB (3%)
Title : DVO Пифагор
Language : Russian
Default : No
Forced : No
Audio #3
ID : 4
Format : AC-3
Format/Info : Audio Coding 3
Mode extension : CM (complete main)
Format settings, Endianness : Big
Codec ID : A_AC3
Duration : 2h 1mn
Bit rate mode : Constant
Bit rate : 384 Kbps
Channel count : 6 channels
Channel positions : Front: L C R, Side: L R, LFE
Sampling rate : 48.0 KHz
Bit depth : 16 bits
Compression mode : Lossy
Stream size : 333 MiB (7%)
Language : English
Default : No
Forced : No
Text
ID : 5
Format : UTF-8
Codec ID : S_TEXT/UTF8
Codec ID/Info : UTF-8 Plain Text
Language : English
Default : No
Forced : No
Menu
00:00:00.000 : en:Credits and Foreword.
00:02:11.000 : en:Dissenting Voices.
00:05:20.000 : en:Beware The Ides Of March.
00:08:13.000 : en:Not In Our Stars.
00:14:33.000 : en:Casca's Crown Chronicle.
00:21:18.000 : en:So Vile As Caesar.
00:27:00.000 : en:Speak, Strike, Redress!
00:31:48.000 : en:Kill Him Boldly.
00:36:39.000 : en:Good Portia.
00:41:18.000 : en:Calpurnia's Fear.
00:44:31.000 : en:Emperor's Escort.
00:48:41.000 : en:Capitol Entrance.
00:51:43.000 : en:Et Tu, Brute?
00:54:59.000 : en:Bathing In Blood.
00:58:18.000 : en:Bargaining With Antony.
01:03:38.000 : en:Let Slip The Dogs Of War.
01:06:12.000 : en:I Loved Rome More.
01:09:33.000 : en:Lend Me Your Ears.
01:14:46.000 : en:Such Honorable Men.
01:17:39.000 : en:Most Unkindest Cut.
01:23:16.000 : en:Antony And Octavius.
01:26:57.000 : en:Ill Temper.
01:33:43.000 : en:News Of The Dead.
01:38:10.000 : en:Sleepy Tune.
01:41:10.000 : en:Caesar's Ghost.
01:43:44.000 : en:Parting Well Made.
01:46:09.000 : en:Field Of Battle.
01:48:58.000 : en:Cassius Dies.
01:53:17.000 : en:Brutus Dies.
01:58:34.000 : en:Noblest Roman.
02:00:21.000 : en:Cast List.

Скриншоты


_________________
Показать сообщения:    

Текущее время: Сегодня 00:06

Часовой пояс: GMT



Вы не можете начинать темы
Вы не можете отвечать на сообщения
Вы не можете редактировать свои сообщения
Вы не можете удалять свои сообщения
Вы не можете голосовать в опросах
Вы не можете прикреплять файлы к сообщениям
Вы не можете скачивать файлы
Наши партнеры: интернет магазин Ивановского трикотажа textilla.ru